<?xml version="1.0" standalone="no"?>
<!DOCTYPE svg PUBLIC "-//W3C//DTD SVG 1.1//EN" "http://www.w3.org/Graphics/SVG/1.1/DTD/svg11.dtd" >
<svg xmlns="http://www.w3.org/2000/svg" xmlns:xlink="http://www.w3.org/1999/xlink" version="1.1">
<metadata>
Created by FontForge 20200306 at Thu Jun 15 21:30:41 2017
 By convertio
Copyright (c) 1981, 1982, 1983, 1989 and 1993, Linotype Library GmbH or its affiliated Linotype-Hell companies. All rights reserved.

The digitally encoded machine readable software for producing the Typefaces licensed to you is now the property of Heidelberger Druckmaschinen AG and its licensors, and may not be reproduced, used, displayed, modified, disclosed or transferred without the express written approval of Heidelberger Druckmaschinen AG.

Copyright (c) 1988, 1990, 1993 Adobe Systems Incorporated. All Rights Reserved.
</metadata>
<defs>
<font id="Optima-ExtraBlack" horiz-adv-x="593" >
  <font-face 
    font-family="Optima"
    font-weight="900"
    font-stretch="normal"
    units-per-em="1000"
    panose-1="2 0 11 3 0 0 0 2 0 4"
    ascent="800"
    descent="-200"
    x-height="524"
    cap-height="716"
    bbox="-403 -262 1144 961"
    underline-thickness="50"
    underline-position="-175"
    unicode-range="U+0009-FB02"
  />
<missing-glyph horiz-adv-x="0" 
 />
    <glyph glyph-name="fi" unicode="fi" horiz-adv-x="685" 
d="M413 672q0 21 8.5 40t23 33.5t33.5 23t41 8.5q21 0 40 -8.5t33.5 -22.5t23 -33.5t8.5 -40.5t-8.5 -40.5t-23 -33.5t-33.5 -22.5t-40 -8.5q-22 0 -41 8.5t-33.5 23t-23 33.5t-8.5 40zM414 278q0 57 -0.5 92t-1.5 60t-2.5 45.5t-3.5 48.5q28 -5 55.5 -7t56.5 -2q58 0 113 9
q-6 -82 -7.5 -150.5t-1.5 -116.5v-54q0 -23 0.5 -50l1 -54t2 -52.5t2.5 -46.5q-29 4 -58.5 6.5t-58.5 2.5q-26 0 -53 -3t-53 -6q3 36 5 62t2.5 54.5t1 66t0.5 95.5zM354 620q-25 14 -51 24.5t-60 10.5q-17 0 -34.5 -8t-17.5 -29q0 -11 7.5 -25t18.5 -29t24 -30t24 -27
q26 0 51 0.5t51 3.5q-2 -8 -3.5 -16t-1.5 -18q0 -22 5 -44q-23 2 -44.5 3.5t-44.5 1.5q0 -112 2 -219.5t6 -218.5q-24 4 -53 6.5t-61 2.5q-27 0 -54 -3l-54 -6q5 54 6 113t1 112v66v73q0 19 -0.5 37t-1.5 37q-20 0 -38.5 -1.5t-35.5 -3.5q5 25 5 42q0 8 -1.5 18.5t-3.5 17.5
q17 -1 36 -2.5t38 -1.5q4 32 9.5 58t14.5 49.5t24 45.5t38 44t46.5 35.5t45.5 21t41 10t34 2.5q17 0 34 -1.5t31 -3.5q-9 -35 -13 -70t-6 -72z" />
    <glyph glyph-name="fl" unicode="fl" horiz-adv-x="685" 
d="M414 520q0 29 -0.5 53t-1 50.5t-2.5 58.5t-5 78q28 -5 56 -7t56 -2q29 0 56.5 2t55.5 7q-2 -60 -4.5 -126.5t-2.5 -135.5v-249q0 -31 0.5 -65.5t1.5 -68.5t2 -64t2 -51q-27 4 -54.5 6.5t-55.5 2.5t-56.5 -3t-56.5 -6q3 48 6 100t3 103v317zM354 620q-25 14 -51 24.5
t-60 10.5q-17 0 -34.5 -8t-17.5 -29q0 -11 7.5 -25t18.5 -29t24 -30t24 -27q26 0 51 0.5t51 3.5q-2 -8 -3.5 -16t-1.5 -18q0 -22 5 -44q-23 2 -44.5 3.5t-44.5 1.5q0 -112 2 -219.5t6 -218.5q-24 4 -53 6.5t-61 2.5q-27 0 -54 -3l-54 -6q5 54 6 113t1 112v66v73
q0 19 -0.5 37t-1.5 37q-20 0 -38.5 -1.5t-35.5 -3.5q5 25 5 42q0 8 -1.5 18.5t-3.5 17.5q17 -1 36 -2.5t38 -1.5q4 32 9.5 58t14.5 49.5t24 45.5t38 44t46.5 35.5t45.5 21t41 10t34 2.5q17 0 34 -1.5t31 -3.5q-9 -35 -13 -70t-6 -72z" />
    <glyph glyph-name=".notdef" horiz-adv-x="0" 
 />
    <glyph glyph-name=".null" horiz-adv-x="0" 
 />
    <glyph glyph-name="nonmarkingreturn" horiz-adv-x="333" 
 />
    <glyph glyph-name="space" unicode="&#x9;" horiz-adv-x="296" 
 />
    <glyph glyph-name="space" unicode=" " horiz-adv-x="296" 
 />
    <glyph glyph-name="space" unicode="&#xd;" horiz-adv-x="296" 
 />
    <glyph glyph-name="exclam" unicode="!" horiz-adv-x="333" 
d="M271 95q0 -22 -8 -40.5t-22.5 -32.5t-33.5 -21t-40 -7t-40 7t-33.5 21t-22.5 32.5t-8 40.5q0 21 8 40t22.5 33t33.5 22.5t40 8.5t40 -8.5t33.5 -22.5t22.5 -33t8 -40zM83 489l-14 62t-7 63q0 60 28.5 86t76.5 26q49 0 77 -27t28 -79q0 -15 -3.5 -37t-8.5 -45t-10 -44
t-8 -36l-51 -211h-52z" />
    <glyph glyph-name="quotedbl" unicode="&#x22;" horiz-adv-x="519" 
d="M288 716h166l-53 -333h-60zM65 716h166l-53 -333h-60z" />
    <glyph glyph-name="numbersign" unicode="#" 
d="M367 420h-114l-27 -139h114zM545 281l-16 -89h-100l-37 -192h-105l37 192h-114l-37 -192h-105l37 192h-100l16 89h100l27 139h-100l16 89h100l36 188h105l-36 -188h114l36 188h105l-36 -188h100l-16 -89h-100l-27 -139h100z" />
    <glyph glyph-name="dollar" unicode="$" 
d="M323 69q17 4 32 9t26.5 14t18.5 22.5t7 34.5t-6.5 34t-18 22t-27 14.5t-32.5 11.5v-162zM262 627q-9 -2 -22 -6.5t-26 -13.5t-22 -24t-9 -38q0 -21 9 -35t21.5 -23t26 -14t22.5 -8v162zM191 267q-27 8 -53 22.5t-47 39t-34 60.5t-13 86q0 51 16 91t44.5 68.5t69 46
t88.5 23.5q0 20 -0.5 37t-2.5 37q20 -3 37 -3t33 3q-2 -18 -3 -36t-1 -37q31 -1 55 -4.5t46 -9.5t44 -15.5t49 -22.5q-9 -34 -14.5 -68t-11.5 -69h-39q-4 15 -10.5 34.5t-20.5 37t-37.5 29t-60.5 11.5v-180q41 -11 82 -24t73.5 -36t53 -61t20.5 -98q0 -113 -62 -169
t-169 -66q0 -26 1 -50.5t3 -50.5q-8 1 -16.5 2t-17.5 1q-18 0 -36 -3l2 50t1 50q-66 3 -117 17.5t-96 37.5q9 35 14.5 70.5t10.5 70.5h39q4 -15 10.5 -34t21.5 -36.5t42.5 -31t74.5 -18.5v178z" />
    <glyph glyph-name="percent" unicode="%" horiz-adv-x="963" 
d="M256 -28l370 758h79l-366 -757zM902 163q0 -39 -14 -70.5t-39 -54t-60.5 -33.5t-79.5 -11q-39 0 -73.5 10t-59.5 31.5t-39.5 53.5t-14.5 74q0 35 12 66t36 54.5t59.5 37.5t82.5 14q39 0 73.5 -11.5t60.5 -33.5t41 -54t15 -73zM667 168q0 -22 0.5 -43.5t5 -38t13.5 -27
t26 -10.5t26 9.5t13.5 26t5 38t0.5 45.5q0 16 -0.5 35t-5 35.5t-13.5 27.5t-26 11t-26 -11t-13.5 -27.5t-5 -35.5t-0.5 -35zM206 541q0 -22 0.5 -43.5t5 -38t13.5 -27t26 -10.5t26 9.5t13.5 26t5 38t0.5 45.5q0 16 -0.5 35t-5 35.5t-13.5 27.5t-26 11t-26 -11t-13.5 -27.5
t-5 -35.5t-0.5 -35zM441 536q0 -39 -14 -70.5t-39 -54t-60.5 -35t-79.5 -12.5q-39 0 -73.5 11t-59.5 33t-39.5 54t-14.5 74q0 35 12 66t36 54.5t59.5 37.5t82.5 14q39 0 73.5 -11.5t60.5 -33.5t41 -54t15 -73z" />
    <glyph glyph-name="ampersand" unicode="&#x26;" horiz-adv-x="815" 
d="M718 418q6 -15 11 -25.5t10.5 -20t12 -20t15.5 -24.5q-26 -35 -56.5 -72.5t-75.5 -80.5l33 -38q16 -18 32 -35.5t33 -34.5l18 -18l11.5 -11.5t8.5 -7.5t10 -7v-23q-32 3 -62.5 6t-56.5 3q-10 0 -26 -0.5t-33 -2t-33 -3t-27 -3.5q-14 15 -27.5 30t-27.5 31
q-57 -35 -111 -52.5t-122 -17.5q-44 0 -84.5 11t-71 35t-49 60t-18.5 83q0 43 16.5 76t42.5 59t59.5 46.5t66.5 37.5q-23 29 -39 66.5t-16 74.5q0 40 17 71t46 52t66.5 32t79.5 11q32 0 67 -7t63.5 -23.5t47 -45t18.5 -70.5q0 -35 -16 -60.5t-37.5 -43t-44 -27.5t-35.5 -15
q14 -20 32.5 -43.5t38.5 -47.5t40 -47t36 -41q51 60 75.5 108.5t31.5 74.5h30zM336 576q0 -14 5.5 -29t14 -29.5t18.5 -27.5t19 -23q27 18 46.5 41t19.5 56q0 30 -16.5 50t-48.5 20q-26 0 -42 -16t-16 -42zM373 98q25 0 38 6t27 15q-11 13 -35.5 42t-52 62.5t-53 65.5
t-38.5 51q-20 -17 -31 -34.5t-11 -44.5q0 -29 13.5 -58t35 -52.5t49.5 -38t58 -14.5z" />
    <glyph glyph-name="quotesingle" unicode="'" horiz-adv-x="296" 
d="M65 716h166l-53 -333h-60z" />
    <glyph glyph-name="parenleft" unicode="(" horiz-adv-x="370" 
d="M348 695q-36 -47 -59 -93t-36 -94.5t-17.5 -102.5t-4.5 -118q0 -14 1 -37.5t2.5 -48.5t4 -48.5t5.5 -37.5q9 -48 23 -83.5t29 -62.5t29 -45t23 -29l-45 -33q-16 12 -38.5 31t-47 44.5t-49 55.5t-45.5 66q-29 52 -45.5 108.5t-16.5 116.5q0 8 1 29.5t6 51.5t14.5 65
t26.5 70q16 33 34 62t41 56t52.5 54t67.5 57l44 -34v0z" />
    <glyph glyph-name="parenright" unicode=")" horiz-adv-x="370" 
d="M22 -105q33 39 55 77t36 86.5t20 111.5t6 148q0 57 -6.5 112t-26.5 115q-19 56 -40.5 88.5t-43.5 61.5l44 34q56 -43 97.5 -85.5t77.5 -104.5q33 -57 50.5 -120.5t17.5 -132.5q0 -75 -21 -137t-57 -119q-16 -25 -37 -49t-43 -46t-44 -41t-40 -32l-45 33v0z" />
    <glyph glyph-name="asterisk" unicode="*" horiz-adv-x="407" 
d="M235 486q7 -62 21 -131q-14 1 -26.5 1.5t-26.5 0.5t-27.5 -0.5t-27.5 -1.5q13 53 16.5 82t5.5 46q-26 -20 -51 -40.5t-50 -41.5q-7 15 -12.5 26t-12 21t-14.5 20.5t-20 24.5l39 12q19 6 45.5 16t45.5 18q-22 9 -36.5 15t-27 10.5t-27 9.5t-35.5 12l17 25.5t12.5 20.5
t10.5 21t11 27q24 -20 38 -32t24.5 -20.5t19.5 -15.5t22 -16q-2 27 -7 62.5t-13 67.5l26 -2t28 -1q17 0 28 0.5t24 2.5q-7 -28 -12.5 -60.5t-9.5 -69.5q19 15 31 24t22.5 17t21.5 17t28 24q7 -15 12 -25t10.5 -19.5t13 -20.5t18.5 -27q-23 -7 -39 -12t-29.5 -10t-26.5 -10.5
t-31 -13.5q10 -4 29 -11t38.5 -14t36 -13t21.5 -8q-11 -16 -18 -27t-12.5 -21t-10 -20t-10.5 -25q-12 11 -24 21t-25 20l-54 44v0z" />
    <glyph glyph-name="plus" unicode="+" horiz-adv-x="667" 
d="M388 365h215v-109h-215v-215h-109v215h-215v109h215v215h109v-215z" />
    <glyph glyph-name="comma" unicode="," horiz-adv-x="296" 
d="M72 98q5 19 12.5 37.5t19.5 33.5t29.5 24t41.5 9q35 0 61 -22.5t26 -60.5q0 -35 -21 -64.5t-50 -59.5l-150 -173l-38 18z" />
    <glyph glyph-name="hyphen" unicode="-" horiz-adv-x="426" 
d="M46 348q81 -6 161 -6q87 0 172 6q-2 -17 -4 -38t-2 -36q0 -20 2 -36.5t4 -33.5q-42 4 -83.5 5t-83.5 1q-82 0 -166 -6q1 14 3.5 34.5t2.5 37.5q0 19 -2 37t-4 35z" />
    <glyph glyph-name="period" unicode="." horiz-adv-x="296" 
d="M252 95q0 -22 -8 -40.5t-22.5 -32.5t-33.5 -21t-40 -7t-40 7t-33.5 21t-22.5 32.5t-8 40.5q0 21 8 40t22.5 33t33.5 22.5t40 8.5t40 -8.5t33.5 -22.5t22.5 -33t8 -40z" />
    <glyph glyph-name="slash" unicode="/" horiz-adv-x="407" 
d="M115 -32h-114l291 783h114z" />
    <glyph glyph-name="zero" unicode="0" 
d="M34 349q0 62 13 126t43.5 116t81 84.5t125.5 32.5q71 0 121 -29.5t81.5 -79t45.5 -114t14 -135.5q0 -63 -13 -127t-43.5 -115.5t-80.5 -82.5t-125 -31q-74 0 -124.5 30t-81 80.5t-44 114.5t-13.5 130zM344 349q0 88 -0.5 143.5t-5 87.5t-14 44t-27.5 12q-17 0 -26.5 -12
t-14.5 -43.5t-6 -87.5t-1 -144q0 -89 0.5 -145t5 -87.5t14.5 -42.5t28 -11t27.5 11t14 42.5t5 87.5t0.5 145z" />
    <glyph glyph-name="one" unicode="1" 
d="M433 700q-2 -39 -3.5 -82.5l-3 -87t-2 -85t-0.5 -76.5q0 -59 0.5 -102.5t1.5 -83t2.5 -82.5t3.5 -101q-55 9 -113 9q-27 0 -53.5 -2.5t-52.5 -6.5q2 24 3.5 67t3 93.5t2 102.5t0.5 93q0 83 -3 165q-29 -15 -57.5 -29t-55.5 -31q-15 20 -29.5 39t-31.5 38q26 9 51.5 20
t51.5 22q23 10 59 27.5t73.5 37t72 39t53.5 33.5l27 -17v0z" />
    <glyph glyph-name="two" unicode="2" 
d="M536 519q0 -41 -12.5 -72.5t-31 -57t-41.5 -45.5t-44 -38q-30 -25 -61.5 -46t-63.5 -43l-69 -46q33 0 75 0.5t86 2t87 3.5t78 5q-4 -23 -5.5 -43t-1.5 -41q0 -23 2 -49.5t5 -48.5q-26 3 -57.5 5t-64 2.5t-64.5 1t-58 0.5q-129 0 -260 -9q4 20 4 51q-1 13 -1.5 25t-2.5 25
q24 18 56 47t64.5 61t60.5 64t44 56q17 26 27.5 53.5t16.5 53t8 48t2 38.5q0 18 -3 37.5t-11.5 35.5t-22.5 26.5t-36 10.5q-30 0 -48 -18t-27 -44.5t-12 -55t-4 -49.5l-17 -7q-17 22 -48.5 53t-68.5 58q27 40 54.5 66.5t58.5 42.5t67 22.5t81 6.5q56 0 103.5 -14t82 -39
t54 -59.5t19.5 -75.5z" />
    <glyph glyph-name="three" unicode="3" 
d="M136 201q0 -22 5 -47t17 -46t30.5 -34.5t45.5 -13.5q30 0 48.5 12.5t29 32.5t14 44.5t3.5 49.5q0 23 -3 46t-12 41t-25.5 29.5t-43.5 11.5q-11 0 -23 -1t-23 -3q4 20 4 40q0 8 -0.5 15.5t-1.5 15.5q9 -1 18.5 -2t17.5 -1q26 0 42 10.5t25 27t12 38.5t3 44q0 26 -4 49
t-13 40t-24 27t-37 10q-20 0 -34.5 -10.5t-24 -25.5t-14.5 -32t-7 -30l-6 -49l-15 -2q-8 12 -21.5 27t-28.5 29t-29.5 26.5t-24.5 20.5q13 16 30.5 35.5t43.5 36t63 28t89 11.5q40 0 85 -9t82.5 -29.5t62.5 -54t25 -83.5q0 -33 -12.5 -59.5t-33 -46t-46 -32t-51.5 -17.5
q31 -4 60.5 -16.5t53 -32.5t37.5 -48.5t14 -65.5q0 -58 -26 -99t-67 -67t-91.5 -36.5t-100.5 -10.5q-36 0 -66.5 3t-58.5 13.5t-55 29t-56 47.5q29 31 52.5 56.5t45.5 60.5l20 -4v0z" />
    <glyph glyph-name="four" unicode="4" 
d="M122 286h158v239zM520 292q12 0 24.5 1t24.5 2q-2 -20 -4 -39t-2 -37q0 -19 2 -39.5t4 -35.5q-11 1 -20.5 1.5t-20.5 0.5l-57 -1q0 -50 1 -81.5t3 -63.5q-24 5 -50.5 7t-52.5 2t-50.5 -2.5t-49.5 -6.5q1 16 2 36t1.5 39.5t1 37.5t0.5 31q-5 1 -11 1h-11h-22
q-54 0 -105 -1t-105 -3q6 42 6 77q0 16 -2 32t-4 33q16 19 34.5 44t37 52t36.5 54.5t33 51.5l65 102q17 27 34 54.5t33 55.5q23 -4 43.5 -6.5t46.5 -2.5q24 0 46.5 3t44.5 6q-2 -55 -4.5 -114t-2.5 -117l1 -175z" />
    <glyph glyph-name="five" unicode="5" 
d="M93 187q11 -55 44 -91t87 -36q30 0 50.5 12.5t33 32.5t18.5 45.5t6 50.5q0 27 -5 52t-17 44.5t-32 31t-50 11.5q-35 0 -58.5 -14.5t-43.5 -41.5l-46 26q3 32 4.5 70.5t1.5 70.5v37q0 51 -1.5 99.5t-8.5 99.5l22 10q39 -7 78.5 -8t78.5 -1q66 0 130.5 2.5t131.5 6.5
q-4 -20 -5.5 -41t-1.5 -40q0 -23 2 -49t5 -47q-21 2 -57 3.5t-76 2t-77.5 1t-60.5 0.5h-39h-18t-17 -1q-3 -66 -9 -132q19 11 52.5 24t91.5 13q45 0 87.5 -11.5t76.5 -35.5t54.5 -61.5t20.5 -88.5q0 -68 -27.5 -114.5t-72.5 -75t-102.5 -40t-116.5 -11.5q-32 0 -59 3
t-51.5 9t-49 16.5t-51.5 24.5q19 33 32 69.5t21 71.5h24v0z" />
    <glyph glyph-name="six" unicode="6" 
d="M356 210q0 41 -2.5 68t-9 43.5t-17 23t-27.5 6.5q-20 0 -31 -11.5t-16 -28.5t-6 -37.5t-1 -38.5q0 -95 10 -136.5t46 -41.5q20 0 31 12t16 32.5t6 48.5t1 60zM483 626q-17 2 -33 4t-33 2q-45 0 -77 -22t-55 -57q-21 -33 -29.5 -78t-8.5 -83q29 17 53.5 25t59.5 8
q44 0 81 -14t64 -40.5t42.5 -65t15.5 -86.5q0 -47 -18 -88.5t-51 -72t-80 -47.5t-105 -17q-72 0 -123 25.5t-83.5 70.5t-48 104.5t-15.5 124.5q0 63 15 127.5t51 118.5q54 78 128 110t167 32q17 0 32.5 -1t32.5 -3q3 -12 5.5 -20t6 -15t7.5 -14t10 -17z" />
    <glyph glyph-name="seven" unicode="7" 
d="M578 642q-57 -93 -105 -188.5t-90 -180.5q-10 -21 -27 -58.5t-34.5 -78t-33 -78t-22.5 -58.5q-42 9 -83 9q-22 0 -40.5 -3t-34.5 -6l-11 13q23 35 47 68.5t47 68.5q48 74 88 141t84 141l49 84q-5 1 -10 1h-9h-18h-139q-45 0 -88 -2t-88 -9q5 25 6 49t1 49q0 23 -2 46.5
t-5 46.5q60 -8 120.5 -8.5t121.5 -0.5q69 0 135 2t135 7l22 -29z" />
    <glyph glyph-name="eight" unicode="8" 
d="M251 528q0 -40 3.5 -64t10.5 -36.5t16 -16.5t21 -4q15 0 23.5 11.5t12.5 29t4.5 38.5t0.5 40q0 20 -0.5 40.5t-5 36.5t-13.5 26t-26 10q-18 0 -27.5 -10.5t-14 -27t-5 -36t-0.5 -37.5zM297 58q18 0 28 10.5t15 29.5t6 44t1 55q0 75 -9 113t-41 38q-19 0 -29.5 -13.5
t-15 -34t-5.5 -45t-1 -47.5q0 -24 1 -50.5t5.5 -48.5t15 -36.5t29.5 -14.5zM555 199q0 -56 -21.5 -95.5t-57.5 -64t-82.5 -35t-96.5 -10.5q-48 0 -94 10.5t-83 34.5t-59.5 62.5t-22.5 92.5q0 41 11.5 72t31.5 54t46 39t55 26q-29 9 -53.5 20.5t-42 28.5t-27 41t-9.5 57
q0 41 19 73t52 53.5t77 33t95 11.5t96.5 -10t80 -31t54.5 -53.5t20 -76.5q0 -30 -10.5 -54t-28 -42.5t-41.5 -31.5t-51 -20q20 -8 44.5 -19.5t46.5 -31.5t36.5 -52t14.5 -82z" />
    <glyph glyph-name="nine" unicode="9" 
d="M76 88q17 -8 38 -15.5t61 -7.5q52 0 84.5 22.5t51 57t26 76.5t8.5 82q-19 -14 -52.5 -24.5t-68.5 -10.5q-31 0 -65 11t-62.5 36t-47 65t-18.5 97t21.5 99t57.5 70.5t83.5 42.5t99.5 14q60 0 115 -25t88 -76t44.5 -109t11.5 -118q0 -39 -4.5 -78.5t-15.5 -76.5
t-29.5 -71.5t-46.5 -63.5q-49 -51 -108 -71t-129 -20q-48 0 -75 3t-49 7l-35 71zM292 343q18 0 29 10.5t17 30.5t7.5 48t1.5 64q0 25 -1 50t-6 45.5t-16 33.5t-31 13q-21 0 -33 -10.5t-17 -30t-6 -47t-1 -61.5q0 -29 1 -55.5t6.5 -46.5t17 -32t31.5 -12z" />
    <glyph glyph-name="colon" unicode=":" horiz-adv-x="315" 
d="M262 420q0 -21 -8 -40t-22.5 -33.5t-33.5 -22.5t-40 -8t-40 8t-33.5 22.5t-22.5 33.5t-8 40t8 40t22.5 33t33.5 22.5t40 8.5t40 -8.5t33.5 -22.5t22.5 -33t8 -40zM262 95q0 -22 -8 -40.5t-22.5 -32.5t-33.5 -21t-40 -7t-40 7t-33.5 21t-22.5 32.5t-8 40.5q0 21 8 40
t22.5 33t33.5 22.5t40 8.5t40 -8.5t33.5 -22.5t22.5 -33t8 -40z" />
    <glyph glyph-name="semicolon" unicode=";" horiz-adv-x="315" 
d="M72 98q5 19 12.5 37.5t19.5 33.5t29.5 24t41.5 9q35 0 61 -22.5t26 -60.5q0 -35 -21 -64.5t-50 -59.5l-150 -173l-38 18zM275 420q0 -21 -8 -40t-22.5 -33.5t-33.5 -22.5t-40 -8t-40 8t-33.5 22.5t-22.5 33.5t-8 40t8 40t22.5 33t33.5 22.5t40 8.5t40 -8.5t33.5 -22.5
t22.5 -33t8 -40z" />
    <glyph glyph-name="less" unicode="&#x3c;" horiz-adv-x="667" 
d="M47 365l574 223v-116l-436 -161l436 -160v-116l-574 224v106z" />
    <glyph glyph-name="equal" unicode="=" horiz-adv-x="667" 
d="M603 349h-539v109h539v-109zM603 164h-539v109h539v-109z" />
    <glyph glyph-name="greater" unicode="&#x3e;" horiz-adv-x="667" 
d="M621 258l-574 -223v116l436 161l-436 160v116l574 -224v-106z" />
    <glyph glyph-name="question" unicode="?" horiz-adv-x="426" 
d="M315 95q0 -22 -8 -40.5t-22.5 -32.5t-33.5 -21t-40 -7t-40 7t-33.5 21t-22.5 32.5t-8 40.5q0 21 8 40t22.5 33t33.5 22.5t40 8.5t40 -8.5t33.5 -22.5t22.5 -33t8 -40zM341 314q-7 -16 -12 -31.5t-10 -31.5q-15 -3 -31 -5t-38 -2q-51 0 -84.5 13.5t-53.5 33.5t-28.5 43.5
t-8.5 42.5q0 29 7.5 49.5t20.5 37.5t30.5 33t37.5 35q16 15 30 29t14 37q0 20 -16 33.5t-39 13.5q-26 0 -53 -13.5t-44 -48.5h-24q-1 29 -2.5 51.5t-6.5 51.5q24 8 44 15t39.5 12.5t40 8.5t45.5 3q51 0 90 -14t65.5 -36.5t39.5 -52t13 -59.5q0 -23 -4.5 -40t-14.5 -32.5
t-27 -31.5t-42 -36q-15 -12 -30 -22.5t-26.5 -20t-18.5 -19t-7 -20.5q0 -17 11 -27.5t30 -10.5q20 0 31.5 6.5t19.5 12.5z" />
    <glyph glyph-name="at" unicode="@" horiz-adv-x="800" 
d="M332 274q0 -26 10.5 -45.5t33.5 -19.5q28 0 48 24t33 56.5t19 66.5t6 55q0 26 -11.5 39.5t-29.5 13.5q-26 0 -46.5 -22.5t-34.5 -53t-21 -62.5t-7 -52zM689 72q-68 -47 -142 -64t-157 -17q-66 0 -130.5 19.5t-115 61.5t-81.5 105.5t-31 149.5q0 84 31.5 153.5t85.5 120
t127 78.5t157 28q66 0 127 -19t107 -55.5t73.5 -91t27.5 -126.5q0 -57 -14.5 -105.5t-41.5 -84.5t-65 -56.5t-85 -20.5q-34 0 -59 10t-37 44q-39 -54 -113 -54q-63 0 -99.5 33t-36.5 102q0 44 15.5 87t43.5 77.5t67 56t87 21.5q31 0 53.5 -10.5t34.5 -35.5l11 36h97
q-30 -102 -50.5 -173t-20.5 -94q0 -18 7 -28.5t26 -10.5q25 0 47.5 14.5t39.5 41.5t27 64.5t10 83.5q0 63 -22 108.5t-59.5 75t-88.5 43.5t-109 14q-67 0 -122.5 -27t-95 -72.5t-61.5 -104.5t-22 -124q0 -63 20 -115.5t57 -90t89 -58.5t115 -21t129.5 17t117.5 56z" />
    <glyph glyph-name="A" unicode="A" horiz-adv-x="722" 
d="M204 233q11 -1 22 -1h22h44h44h22t22 1l-86 233zM130 0q-17 4 -33.5 6.5t-34.5 2.5q-17 0 -33.5 -2.5t-30.5 -6.5l59 133q14 30 31 69.5t35.5 84.5t38.5 94l40 98q11 28 25 64.5t27 72t24 64t16 40.5q17 -4 35 -6.5t35 -2.5q18 0 36 2.5t35 6.5q11 -36 28 -84.5
t36.5 -102t40 -107t38.5 -99.5q21 -53 37.5 -94t31.5 -77.5t31.5 -73.5t37.5 -82q-29 6 -65 7.5t-66 1.5q-32 0 -64.5 -2.5t-64.5 -6.5q-10 38 -20.5 73t-23.5 70q-33 0 -66 0.5t-66 0.5q-26 0 -52.5 -0.5t-52.5 -0.5q-14 -35 -24 -71t-21 -72z" />
    <glyph glyph-name="B" unicode="B" horiz-adv-x="722" 
d="M340 412q49 0 72.5 29t23.5 81q0 24 -4 45t-15.5 36t-31.5 23.5t-52 8.5h-15h-7q-3 0 -7 -1q0 -13 -0.5 -27.5t-0.5 -38.5v-61v-95h37zM303 227v-70q0 -27 0.5 -43.5t0.5 -31.5q30 0 55 2t43 14.5t28 39.5t10 76q0 58 -23.5 89.5t-71.5 31.5h-42v-108zM451 380
q44 -4 84.5 -14.5t72 -31.5t50.5 -55t19 -84q0 -53 -24.5 -90t-63.5 -60.5t-87 -34t-95 -10.5q-48 0 -107.5 4.5t-116.5 4.5q-28 0 -56.5 -3t-55.5 -6q3 49 4.5 80t3 57.5t2 54t0.5 68.5v78v94v61q0 25 -0.5 43.5t-0.5 39.5l-6 140q71 -9 140 -9q48 0 93 4.5t91 4.5
q39 0 85 -6t86 -24.5t66.5 -52t26.5 -89.5q0 -18 -7.5 -44t-30.5 -50.5t-64 -43t-109 -22.5v-4z" />
    <glyph glyph-name="C" unicode="C" horiz-adv-x="722" 
d="M618 526q-13 54 -53.5 81t-94.5 27q-56 0 -93 -23t-59.5 -60t-32 -83.5t-10.5 -93.5q0 -49 7 -100.5t27.5 -92.5t58.5 -67.5t99 -26.5q35 0 62.5 8t50.5 21t42 28t35 30l31 -17q-9 -29 -17 -58.5t-15 -59.5q-45 -16 -101.5 -30.5t-131.5 -14.5q-80 0 -150.5 23.5
t-122.5 70t-82 113t-30 150.5q0 90 32 159.5t87.5 117.5t130.5 72.5t160 24.5q60 0 121.5 -13.5t118.5 -35.5q-3 -17 -7.5 -33.5t-8.5 -33.5q-5 -21 -8 -41.5t-6 -41.5h-40v0z" />
    <glyph glyph-name="D" unicode="D" horiz-adv-x="815" 
d="M537 366q0 90 -15 143t-40 80.5t-58 35.5t-69 8q-22 0 -48 -3q-2 -43 -3 -82.5t-1 -84.5q0 -39 0.5 -88.5t0.5 -101.5q0 -51 0.5 -100.5t0.5 -88.5q8 -1 15 -1h15h31q51 0 84 17.5t52.5 52.5t27 88t7.5 125zM779 367q0 -54 -12.5 -104.5t-35.5 -92.5t-55 -74.5t-72 -51.5
q-26 -13 -47.5 -21.5t-43 -13.5t-44.5 -7t-51 -2q-52 0 -103 4.5t-103 4.5q-36 0 -71.5 -3t-70.5 -6q5 81 8 155.5t3 155.5q0 99 -2 198t-7 207q30 -4 60 -6.5t60 -2.5q51 0 99.5 4.5t99.5 4.5q69 0 128 -12t117 -49q36 -23 63 -55.5t45 -70t26.5 -79t8.5 -83.5z" />
    <glyph glyph-name="E" unicode="E" horiz-adv-x="611" 
d="M377 101q14 0 38.5 0.5t51.5 1.5t52.5 2.5t41.5 2.5q-2 -14 -3.5 -28.5t-1.5 -28.5q0 -13 1.5 -26t3.5 -25q-61 5 -121.5 7t-120.5 2q-61 0 -122 -2t-122 -7q3 21 4.5 40t2 44.5t1 62t0.5 93.5v109q0 79 -0.5 130.5t-1.5 90.5t-3 72t-5 74q52 -4 104 -6.5t104 -2.5
q29 0 66.5 0.5t76 1t74.5 2.5t63 5q-2 -14 -3.5 -26.5t-1.5 -26.5t1.5 -28t3.5 -28q-38 2 -75 4.5t-74 2.5h-105v-196q12 0 36 0.5t56.5 1.5t71.5 3t81 5q-2 -14 -3.5 -26.5t-1.5 -26.5q0 -26 5 -54q-30 2 -57.5 3.5t-56 3t-60.5 2t-71 0.5v-229h70z" />
    <glyph glyph-name="F" unicode="F" 
d="M431 329q-30 2 -60.5 3t-60.5 1q0 -30 0.5 -75t2 -92.5t3.5 -92t5 -73.5q-61 9 -123 9q-29 0 -59 -2.5t-59 -6.5q6 108 8 212.5t2 212.5q0 73 -3 145.5t-8 145.5q66 -5 128.5 -7t116.5 -2t114 2t114 7q-1 -14 -3 -27.5t-2 -27.5t1.5 -27t3.5 -27q-33 2 -69 3.5t-69 3
t-60 2t-41 0.5q-2 -51 -2.5 -99t-0.5 -99q12 0 43 0.5t67.5 1.5t70.5 3t52 5q-2 -11 -3.5 -26t-1.5 -28q0 -12 1.5 -27t3.5 -26l-112 8v0z" />
    <glyph glyph-name="G" unicode="G" horiz-adv-x="796" 
d="M655 516q-20 63 -64 91.5t-111 28.5q-61 0 -101 -25t-63.5 -65.5t-33 -91.5t-9.5 -102q0 -141 44 -208.5t141 -67.5q17 0 30 2.5t27 6.5q0 60 -2 118t-4 118q30 -4 59 -6.5t55 -2.5q28 0 57.5 1.5t56.5 7.5q-3 -66 -4.5 -120.5t-1.5 -103.5q0 -14 1 -32t2 -29
q-29 -8 -64 -16t-72 -14t-74.5 -9.5t-71.5 -3.5q-84 0 -159.5 22.5t-133 68.5t-91 114.5t-33.5 158.5q0 84 31.5 152t87.5 116t132.5 74t167.5 26q72 0 145 -15t139 -44q-17 -40 -27.5 -74t-18.5 -76h-37v0z" />
    <glyph glyph-name="H" unicode="H" horiz-adv-x="833" 
d="M82 330q0 13 -0.5 44.5t-0.5 66.5q0 36 -0.5 67t-0.5 43q0 34 -2 75t-7 90q27 -3 60.5 -6t62.5 -3q28 0 62.5 2.5t60.5 6.5q-3 -35 -5 -73t-3.5 -75.5t-2 -72t-0.5 -63.5q23 -1 51 -1.5t58 -0.5q26 0 55 1t57 1q0 30 -0.5 65.5t-2 72.5t-3.5 74.5t-5 71.5q27 -3 61 -6
t62 -3t62.5 2.5t60.5 6.5q-6 -63 -8.5 -130t-2.5 -156q0 -67 1 -122.5t2.5 -106t3 -99t3.5 -102.5q-64 9 -131 9q-29 0 -57.5 -2.5t-57.5 -6.5q4 33 6.5 79.5t3.5 94t1.5 90t0.5 68.5q-27 0 -55 1t-56 1q-26 0 -55 -0.5t-55 -1.5q0 -27 0.5 -69.5t1.5 -90t3 -93.5t5 -79
q-31 5 -62 7t-63 2q-38 0 -66 -2.5t-54 -6.5l4 50q2 22 3.5 55.5t2 72t1 78.5t0.5 74z" />
    <glyph glyph-name="I" unicode="I" horiz-adv-x="389" 
d="M306 332q0 -85 1.5 -172.5t8.5 -159.5q-28 5 -60.5 7t-64.5 2t-63 -3t-56 -6q5 84 7.5 165t2.5 165q0 20 -0.5 49.5t-0.5 60.5q0 32 -0.5 61.5t-0.5 49.5q0 35 -2 79t-6 86q26 -3 60 -6t62 -3q31 0 64 2.5t59 6.5q-5 -72 -8 -142t-3 -142v-100v0z" />
    <glyph glyph-name="J" unicode="J" horiz-adv-x="389" 
d="M323 163q0 -46 -2 -87.5t-15 -76t-39.5 -64.5t-76.5 -53q-24 -11 -47 -17.5t-48.5 -10t-53.5 -4.5t-61 -1q2 10 3 20t1 20q0 19 -4 35q19 0 38 2t35.5 12.5t28 32.5t13.5 60q1 19 2 47.5t1.5 58t1 56t0.5 42.5q0 121 -3 240.5t-11 240.5q32 -4 63 -6.5t63 -2.5t60.5 2
t59.5 7q-5 -115 -7.5 -226.5t-2.5 -226.5l1 -100v0z" />
    <glyph glyph-name="K" unicode="K" horiz-adv-x="722" 
d="M298 309q0 -22 0.5 -58.5t1.5 -79.5t2.5 -87.5t3.5 -83.5q-25 4 -58.5 6.5t-58.5 2.5q-30 0 -60.5 -3t-60.5 -6q6 59 8.5 131t2.5 145v97q0 85 -1 169t-9 174q32 -4 63 -6.5t63 -2.5q57 0 114 9q-3 -39 -5 -80.5t-3.5 -82t-2 -78t-0.5 -67.5l32 36q39 43 66.5 74.5
t51.5 61.5t48 61.5t56 74.5q41 -9 83 -9q18 0 34.5 2t34.5 7v-14q-17 -17 -35.5 -33.5t-35.5 -34.5q-85 -86 -170 -182q19 -36 44 -79.5t52 -88.5t53 -88t47 -78q22 -34 36.5 -57.5t18.5 -28.5t8.5 -10.5t4.5 -8.5v-13q-9 1 -23.5 2.5t-31 3t-34 2.5t-33.5 1q-31 0 -70.5 -2
t-69.5 -7q-6 12 -14.5 28.5t-17.5 34.5t-19 36.5t-19 34.5l-97 175v0z" />
    <glyph glyph-name="L" unicode="L" horiz-adv-x="574" 
d="M308 101q10 0 40 0.5t66.5 2t73.5 3.5t61 6q-2 -11 -3.5 -25.5t-1.5 -32.5q0 -14 1.5 -27.5t3.5 -27.5q-63 5 -112.5 7t-98.5 2q-54 0 -124 -2t-145 -7q9 44 12 93t3 92v52q0 48 -0.5 87.5t-1 74.5t-1.5 67.5t-2 67.5q-2 46 -3 94.5t-6 87.5q63 -9 128 -9q31 0 59.5 2
t58.5 7q-3 -26 -4.5 -69.5t-3 -92.5t-2 -97t-0.5 -83v-46q0 -14 0.5 -46.5t0.5 -68.5t0.5 -68t0.5 -44z" />
    <glyph glyph-name="M" unicode="M" horiz-adv-x="981" 
d="M637 391q-45 -97 -87 -198t-74 -190q-12 2 -23.5 3.5t-25.5 1.5q-11 0 -23.5 -1.5t-26.5 -3.5q-25 69 -54.5 135t-56.5 135q-17 42 -36 81.5t-36 81.5q-11 -55 -18 -109.5t-14 -111.5q-8 -66 -13 -119t-7 -96q-30 9 -62 9q-17 0 -33 -2.5t-33 -6.5q20 76 35 151.5
t29 153.5q17 88 30 184t20 187l3 40q23 -5 46 -7t46 -2q25 0 47 2t46 7q9 -26 22 -60.5t28.5 -73t33 -79t34.5 -79t33.5 -73.5t29.5 -62l91.5 213.5t83.5 213.5q22 -5 44 -7t45 -2t47 1.5t47 7.5l12 -129q4 -39 10 -90.5t12.5 -107.5t14.5 -114t15.5 -110t15.5 -95t15 -70
q-32 4 -61.5 6.5t-60.5 2.5q-30 0 -60 -2.5t-59 -6.5q-5 66 -10.5 129t-12.5 129q-5 49 -12 99.5t-13 86.5l-24 -53v0z" />
    <glyph glyph-name="N" unicode="N" horiz-adv-x="796" 
d="M263 340q-20 23 -42 45.5t-43 45.5v-104q0 -28 1.5 -69t3.5 -86t4.5 -90t4.5 -82q-14 4 -27.5 6.5t-32.5 2.5q-17 0 -33 -2.5t-35 -6.5q4 43 7.5 91t6 97t4 97t1.5 91q0 88 -1.5 170t-6.5 170q21 -4 42.5 -6.5t42.5 -2.5q20 0 39 2.5t38 6.5q28 -37 60.5 -76t64.5 -75
t61 -68t51 -56q21 -22 38.5 -41t34 -37.5t33.5 -37.5t37 -40q0 45 -1.5 87.5t-2.5 87.5q-1 37 -2 69.5t-2.5 63.5t-3 61t-3.5 62q20 -5 35 -7t33 -2q17 0 31 2t29 7q-2 -38 -5 -76t-5 -76q-4 -103 -6 -202t-2 -202q0 -40 1 -80t3 -80q-16 4 -38 6.5t-44 2.5q-23 0 -42 -3
t-35 -6q-34 41 -64.5 77t-60 69.5t-57.5 65.5t-57 65l-55 63v0z" />
    <glyph glyph-name="O" unicode="O" horiz-adv-x="889" 
d="M450 73q36 0 62 14t44 36.5t29 52.5t17 61.5t8 63.5t2 59q0 43 -5.5 92.5t-23 92t-51 70.5t-89.5 28q-53 0 -85.5 -26.5t-50.5 -66.5t-24 -87.5t-6 -88.5q0 -31 1.5 -65.5t7.5 -68t17 -63.5t30.5 -53.5t48 -37t68.5 -13.5zM442 725q86 0 161 -23.5t130.5 -69.5t87 -113.5
t31.5 -156.5q0 -94 -32 -163.5t-87.5 -115.5t-131.5 -67.5t-163 -21.5q-82 0 -155 23.5t-128 70t-86.5 115t-31.5 155.5q0 90 31 158.5t85.5 115t128.5 70t160 23.5z" />
    <glyph glyph-name="P" unicode="P" horiz-adv-x="704" 
d="M447 513q0 39 -9 62.5t-24 36.5t-34.5 17.5t-41.5 4.5q-9 0 -17.5 -0.5t-16.5 -1.5q0 -38 -0.5 -69.5t-0.5 -60.5v-57v-59q5 -1 9 -1.5t9 -0.5h20q31 0 51.5 10t32.5 27t17 41t5 51zM678 519q0 -61 -23 -102.5t-61.5 -66.5t-88 -35.5t-103.5 -10.5q-35 0 -59 1.5t-40 3.5
q0 -30 0.5 -76.5t1.5 -93.5t3 -85.5t5 -53.5l-56 6t-56 3q-34 0 -67.5 -2.5t-67.5 -6.5q4 48 7 88t4.5 78.5t2 79t0.5 89.5q0 37 -0.5 84.5t-2 98.5t-3.5 102t-5 96q33 -5 68.5 -7t65.5 -2q52 0 104.5 4.5t101.5 4.5q48 0 96.5 -9t86.5 -31t62 -60t24 -97z" />
    <glyph glyph-name="Q" unicode="Q" horiz-adv-x="889" 
d="M612 360q0 55 -7.5 106t-26.5 90.5t-51.5 63t-82.5 23.5q-52 0 -85 -26.5t-51 -66.5t-24.5 -87.5t-6.5 -88.5q0 -46 4.5 -99t21.5 -97.5t52 -74t95 -29.5q36 0 62 13.5t44 36.5t29 52.5t17 61.5t8 63.5t2 58.5zM715 -49q29 -18 59.5 -33.5t59.5 -31.5v-9q-40 -18 -76 -37
t-74 -41q-33 24 -65.5 49t-65.5 49q-35 26 -70.5 50.5t-71.5 47.5q-22 0 -50.5 3.5t-59 12.5t-61 22.5t-57.5 31.5q-72 51 -109 126.5t-37 166.5q0 90 31 158.5t85.5 115t128.5 70t160 23.5t161 -23.5t130.5 -69.5t87 -113.5t31.5 -156.5q0 -62 -16 -117t-47 -100
t-76.5 -78.5t-104.5 -52.5z" />
    <glyph glyph-name="R" unicode="R" horiz-adv-x="741" 
d="M304 388q5 -1 9.5 -1.5t9.5 -0.5h18q62 0 86.5 34.5t24.5 92.5q0 42 -11.5 66t-28.5 36.5t-37.5 15.5t-38.5 3q-8 0 -16 -0.5t-16 -1.5v-244zM545 312q21 -35 45.5 -75.5t50.5 -81.5t52 -81t50 -74q-35 4 -70 6.5t-70 2.5q-34 0 -64 -2.5t-63 -6.5q-40 78 -80.5 154.5
t-88.5 154.5h-3q0 -66 1.5 -148.5t5.5 -160.5q-29 4 -58 6.5t-60 2.5q-28 0 -58.5 -2.5t-64.5 -6.5q5 51 8.5 121.5t3.5 142.5q0 33 -0.5 82.5t-1.5 109.5t-3 126.5t-5 133.5q35 -5 69.5 -7t66.5 -2q48 0 95.5 4.5t95.5 4.5q50 0 100.5 -7t91 -27.5t66 -58t25.5 -99.5
q0 -76 -43.5 -118t-115.5 -57z" />
    <glyph glyph-name="S" unicode="S" 
d="M117 197q5 -26 19.5 -47t35.5 -35.5t47.5 -22.5t55.5 -8q18 0 36 4t32.5 12.5t23.5 22.5t9 33q0 18 -8 32t-28 28t-53 29.5t-83 36.5q-67 28 -109 80.5t-42 128.5q0 60 21 104t57 73t84.5 43.5t103.5 14.5q54 0 107 -12t104 -31q-15 -34 -25.5 -74t-13.5 -75h-40
q-8 45 -41.5 76t-87.5 31q-16 0 -34.5 -4t-34 -12.5t-25.5 -22t-10 -33.5q0 -19 10 -32.5t27 -24.5t41 -21t51 -22l77 -34q67 -29 96 -78t29 -121q0 -63 -21 -109t-58 -76t-88 -43.5t-110 -13.5q-33 0 -60 2.5t-52.5 6.5t-51.5 12t-56 19q4 21 7.5 38.5t6.5 36t5.5 39.5
t4.5 49h41v0z" />
    <glyph glyph-name="T" unicode="T" horiz-adv-x="611" 
d="M191 612q-48 0 -94 -2.5t-92 -7.5q6 27 6 57q0 13 -2 26.5t-4 30.5q75 -7 149.5 -8t149.5 -1q72 0 147 1t154 8q-2 -12 -4 -27t-2 -34q0 -15 2 -29t4 -24q-46 5 -92 7.5t-94 2.5q-2 -33 -2.5 -75.5t-0.5 -85.5v-54q0 -58 0.5 -109t1 -99t2.5 -94t5 -95q-52 5 -81.5 7
t-43.5 2q-42 0 -70.5 -3.5t-45.5 -5.5q3 28 5 63t3.5 74t2 79t0.5 77v89v43q0 38 -1 87.5t-3 99.5z" />
    <glyph glyph-name="U" unicode="U" horiz-adv-x="796" 
d="M77 302q0 126 -1.5 225t-9.5 189q33 -5 62.5 -7t62.5 -2q32 0 62.5 2t61.5 7q-4 -24 -6.5 -58.5t-4 -72.5t-2.5 -76.5t-1 -70.5v-67q0 -55 2.5 -102t16.5 -82t45.5 -55t88.5 -20q36 0 70.5 16.5t51.5 49.5q14 27 17 54t4 61q1 18 1 36v36v72q0 63 -2.5 132t-9.5 147
q20 -3 39 -6t39 -3q19 0 36 2.5t34 6.5q-3 -46 -5.5 -100t-4.5 -105t-3 -94.5t-1 -69.5q0 -45 -2 -81t-9 -66.5t-20 -57t-35 -52.5q-45 -51 -110.5 -73.5t-144.5 -22.5q-162 0 -242 72.5t-80 235.5z" />
    <glyph glyph-name="V" unicode="V" horiz-adv-x="704" 
d="M269 716q3 -10 17.5 -59t36 -116t47.5 -141.5t52 -136.5q20 53 39.5 109t42.5 128q17 54 34.5 107.5t31.5 108.5q18 -5 35 -7t34 -2q22 0 38.5 3t31.5 6q-30 -69 -60.5 -138t-58.5 -139q-24 -62 -45 -115.5t-41 -104.5t-40 -104t-42 -115q-36 9 -72 9q-17 0 -34.5 -2
t-34.5 -7q-7 24 -21 65t-32.5 92t-40 109t-43.5 116t-43.5 113t-40 100t-32 77t-20.5 44q35 -4 69.5 -6.5t69.5 -2.5q62 0 122 9z" />
    <glyph glyph-name="W" unicode="W" horiz-adv-x="1000" 
d="M381 323q18 51 33.5 99t30 95t28 96t27.5 103q35 -9 69 -9q17 0 34.5 2t34.5 7q10 -50 23.5 -105.5t29.5 -111t33.5 -109.5t35.5 -101l10 32q7 22 15 50t16.5 58.5t16.5 61.5t16 59q11 42 20 83t20 83q39 -9 67 -9q19 0 33.5 2t30.5 7q-14 -33 -31.5 -79.5t-35 -97.5
t-34 -100.5t-28.5 -87.5q-20 -60 -34.5 -105.5t-26 -85t-22 -77.5t-22.5 -83q-20 4 -36.5 6.5t-36.5 2.5t-35 -2.5t-35 -6.5q-20 66 -42 131.5t-44 131.5q-11 32 -20.5 64.5t-20.5 64.5q-8 -22 -15 -41t-13.5 -39t-14.5 -42.5t-18 -51.5q-9 -28 -19.5 -58t-19.5 -59
t-16.5 -55t-11.5 -46q-17 4 -35.5 6.5t-36.5 2.5q-17 0 -38 -2.5t-38 -6.5q-13 57 -28.5 112t-32.5 112q-23 78 -47.5 156t-49.5 156q-28 90 -60 180q32 -5 66.5 -7t60.5 -2q34 0 66.5 3t61.5 6q20 -108 47 -212t61 -213l11 32v0z" />
    <glyph glyph-name="X" unicode="X" horiz-adv-x="648" 
d="M247 182q-27 -45 -53 -90.5t-52 -91.5q-37 9 -74 9q-18 0 -35.5 -2.5t-32.5 -6.5q60 79 117 159t109 161q-24 43 -52.5 94t-58 104t-58 104.5t-52.5 93.5q71 -9 141 -9q31 0 62 2.5t61 6.5q22 -54 48 -106t55 -104l64 104t58 106q16 -3 34 -6t38 -3q21 0 38 3l34 6
q-29 -36 -54.5 -69.5t-51 -68.5t-53 -75t-60.5 -89q15 -32 42.5 -84t59.5 -111t65.5 -117t60.5 -102q-12 1 -29.5 2.5t-36.5 3t-36.5 2.5t-29.5 1q-30 0 -67 -2.5t-64 -6.5q-26 57 -53.5 113t-57.5 113l-26 -44v0z" />
    <glyph glyph-name="Y" unicode="Y" horiz-adv-x="685" 
d="M456 317q-1 -21 -1.5 -42t-0.5 -42q0 -60 3 -117.5t10 -115.5q-36 6 -65.5 7.5t-54.5 1.5q-31 0 -61 -2.5t-61 -6.5q3 36 5 80t3 85.5t1.5 75t0.5 48.5q0 8 -5.5 20t-16.5 32q-26 51 -51 99t-54 99q-26 45 -50.5 88.5t-50.5 88.5q37 -5 73 -7t69 -2q32 0 66 2t60 7
q9 -26 19 -50t25 -55.5t37 -75.5t55 -111q35 72 67.5 144.5t59.5 147.5l34 -6t34 -3q19 0 37.5 2.5t32.5 6.5q-57 -91 -107 -184.5t-99 -187.5l-14 -27v0z" />
    <glyph glyph-name="Z" unicode="Z" horiz-adv-x="667" 
d="M646 673q-14 -18 -33 -47.5t-41.5 -65t-46 -74.5t-45.5 -76.5t-41 -70.5t-32 -58l-97 -176q91 0 171.5 2.5t167.5 9.5q-2 -16 -4 -31t-2 -29q0 -27 6 -57q-78 5 -154 7t-154 2q-82 0 -164 -1.5t-163 -7.5v46q39 58 75.5 117.5t71.5 120.5q48 81 91.5 162t88.5 165
q-55 0 -95.5 -0.5t-73.5 -2t-63.5 -3.5t-66.5 -5q6 23 6 54t-6 62q81 -6 162.5 -7.5t157.5 -1.5q142 0 284 9v-43v0z" />
    <glyph glyph-name="bracketleft" unicode="[" horiz-adv-x="370" 
d="M74 274q0 45 -0.5 104t-1 120.5t-2.5 119t-5 98.5q30 -2 63 -3.5t78 -1.5q35 0 70 1.5t70 3.5q-3 -21 -3 -39q0 -11 1 -21t2 -21q-20 2 -45 3t-45 1h-23q-4 -93 -5.5 -180t-1.5 -150v-79q0 -35 0.5 -73.5t1 -75.5t2 -67.5t2.5 -51.5q33 1 60 2t53 2q-2 -9 -2.5 -20.5
t-0.5 -20.5q0 -16 3 -40q-29 3 -60.5 4t-73.5 1q-31 0 -67.5 -0.5t-79.5 -4.5q7 100 8.5 194.5t1.5 194.5z" />
    <glyph glyph-name="backslash" unicode="\" horiz-adv-x="407" 
d="M406 -32h-114l-291 783h114z" />
    <glyph glyph-name="bracketright" unicode="]" horiz-adv-x="370" 
d="M292 324q0 -45 0.5 -104t1 -120.5t2.5 -117.5t5 -97q-30 2 -63 3.5t-78 1.5q-35 0 -70 -1.5t-70 -3.5q3 21 3 39q0 11 -1 21t-2 21q20 -3 45 -3.5t45 -0.5h23q2 43 3.5 88.5t2 88t1 81t0.5 69.5v79q0 35 -0.5 74t-1 75.5t-1.5 68.5t-3 53q-33 -1 -60 -2t-53 -2
q2 9 2.5 20.5t0.5 20.5q0 16 -3 40q29 -3 60.5 -4t73.5 -1q31 0 67.5 0.5t79.5 4.5q-7 -100 -8.5 -196t-1.5 -196z" />
    <glyph glyph-name="asciicircum" unicode="^" horiz-adv-x="667" 
d="M387 697l182 -409h-115l-120 281l-120 -281h-115l182 409h106z" />
    <glyph glyph-name="underscore" unicode="_" horiz-adv-x="500" 
d="M500 -73v-50h-500v50h500z" />
    <glyph glyph-name="grave" unicode="`" horiz-adv-x="278" 
d="M34 658q-10 6 -21 13t-19 15.5t-13.5 19.5t-5.5 24q0 28 17 41.5t42 13.5q26 0 45 -14t33 -33l111 -150h-67z" />
    <glyph glyph-name="a" unicode="a" horiz-adv-x="574" 
d="M221 155q0 -26 8.5 -45.5t33.5 -19.5q23 0 35.5 13t12.5 33v128q-29 -11 -47 -20.5t-27.5 -21.5t-12.5 -27.5t-3 -39.5zM23 133q0 40 13.5 66.5t38 44.5t58 30t72.5 23q35 9 56.5 15.5t33 13.5t15.5 16t4 23q0 21 -6.5 34.5t-18.5 21t-28 10t-34 2.5q-33 0 -63 -12
t-47 -42l-29 2l-20 89q54 29 105.5 43t113.5 14q57 0 98.5 -13t68.5 -34.5t40 -50.5t13 -61q0 -19 -1 -45.5t-1.5 -54t-1.5 -53t-1 -43.5t0.5 -33.5t4 -27.5t10.5 -18.5t20 -6.5q18 0 37 11q-1 -8 -2 -15t-1 -15q0 -7 1 -13.5t2 -13.5q-28 -21 -66 -32.5t-70 -11.5
q-25 0 -43 3.5t-31 11t-23 17.5t-18 20q-27 -26 -64.5 -39t-75.5 -13q-34 0 -63.5 7t-51 24t-33.5 43t-12 63z" />
    <glyph glyph-name="b" unicode="b" horiz-adv-x="648" 
d="M261 246q0 -41 2 -75.5t8.5 -59t20 -38.5t35.5 -14q26 0 40 20t20.5 50t7.5 66t1 67q0 56 -5 90t-13.5 53t-20.5 25t-26 6q-22 0 -35.5 -13.5t-21 -38.5t-10.5 -60t-3 -78zM618 278q0 -59 -17 -111t-50 -90.5t-81.5 -59.5t-110.5 -21q-32 0 -57 3.5t-45 13t-36.5 24
t-31.5 33.5q-20 -18 -36.5 -34t-34.5 -36q-10 1 -18.5 2.5t-17.5 1.5q-17 0 -32 -4q5 97 8 192.5t3 192.5q0 35 -1 81t-2.5 96t-3 101.5t-3.5 96.5q27 -5 54 -7t55 -2t60 2.5t58 6.5q-3 -18 -5 -41.5t-3 -57t-2 -78t-2 -104.5q22 16 51.5 32t77.5 16q46 0 86.5 -17.5t71 -50
t48 -78.5t17.5 -103z" />
    <glyph glyph-name="c" unicode="c" horiz-adv-x="519" 
d="M432 360q-3 17 -8.5 33t-14.5 28t-22.5 19.5t-33.5 7.5q-31 0 -50 -18t-28.5 -44.5t-12.5 -56.5t-3 -53q0 -22 3.5 -53t14.5 -59.5t33.5 -48.5t59.5 -20q29 0 55 15.5t44 37.5l31 -20q-11 -23 -18.5 -43.5t-17.5 -52.5q-10 -6 -28 -12.5t-40.5 -11.5t-47 -7t-47.5 -2
q-66 0 -117 19.5t-85.5 55t-52 83.5t-17.5 102q0 66 23 116.5t62.5 84t92 50.5t111.5 17q48 0 93.5 -13.5t88.5 -33.5q-5 -17 -9.5 -31.5t-8 -28t-7 -28t-6.5 -32.5h-37v0z" />
    <glyph glyph-name="d" unicode="d" horiz-adv-x="648" 
d="M318 81q23 0 36 14t20 38.5t9 58.5t2 73q0 93 -14.5 132.5t-50.5 39.5q-22 0 -35.5 -14.5t-21 -39.5t-10 -58.5t-2.5 -72.5q0 -35 2.5 -66t10 -54.5t20.5 -37t34 -13.5zM29 252q0 80 23 132.5t57 84.5t72 45t68 13q27 0 47.5 -5t36 -12.5t27 -16.5t21.5 -17q0 72 -2 142
t-5 142q28 -5 53 -7t54 -2q60 0 115 9q-7 -93 -8 -195t-1 -195q0 -66 0.5 -118.5t1.5 -96t3 -81t5 -74.5q-26 4 -50.5 6.5t-49.5 2.5q-26 0 -51 -2.5t-51 -6.5q3 30 3 61q-16 -19 -31 -31.5t-32.5 -20t-37 -10t-44.5 -2.5q-60 0 -102.5 22t-69.5 59t-39.5 83t-12.5 91z" />
    <glyph glyph-name="e" unicode="e" horiz-adv-x="574" 
d="M527 124q-7 -13 -12 -23t-9 -20t-7.5 -20.5t-7.5 -24.5q-40 -19 -87 -28t-92 -9q-59 0 -103 12t-75.5 33t-51.5 49t-32 57.5t-16.5 59t-4.5 54.5q0 54 16 102t49 83.5t83 56.5t119 21q60 0 113.5 -23t89.5 -71q30 -43 37 -91.5t9 -93.5q-20 1 -43 2t-45 1q-108 0 -216 -3
q0 -30 7 -57.5t22.5 -49.5t39.5 -35t57 -13q16 0 35 4.5t37 12t34.5 18t28.5 23.5zM354 318q0 24 -0.5 49t-5.5 45.5t-16 33.5t-32 13q-22 0 -34 -13.5t-17.5 -34t-6.5 -45.5t-1 -48h113z" />
    <glyph glyph-name="f" unicode="f" horiz-adv-x="352" 
d="M354 620q-25 14 -51 24.5t-60 10.5q-17 0 -34.5 -8t-17.5 -29q0 -11 7.5 -25t18.5 -29t24 -30t24 -27q26 0 51 0.5t51 3.5q-2 -8 -3.5 -16t-1.5 -18q0 -22 5 -44q-23 2 -44.5 3.5t-44.5 1.5q0 -112 2 -219.5t6 -218.5q-24 4 -53 6.5t-61 2.5q-27 0 -54 -3l-54 -6
q5 54 6 113t1 112v66v73q0 19 -0.5 37t-1.5 37q-20 0 -38.5 -1.5t-35.5 -3.5q5 25 5 42q0 8 -1.5 18.5t-3.5 17.5q17 -1 35.5 -2.5t38.5 -1.5q4 32 9.5 58t14.5 49.5t24 45.5t38 44t46.5 35.5t45.5 21t41 10t34 2.5q17 0 34 -1.5t31 -3.5q-9 -35 -13 -70t-6 -72l-14 -6v0z
" />
    <glyph glyph-name="g" unicode="g" 
d="M291 252q17 0 27 9t15 24.5t6 36.5t1 46q0 12 -1 29t-5.5 32.5t-14.5 27t-28 11.5q-19 0 -29 -12t-14.5 -28.5t-5.5 -34t-1 -28.5q0 -19 1 -39t5.5 -36.5t14.5 -27t29 -10.5zM158 -98q0 -90 129 -90q23 0 46 4.5t42.5 15t31.5 27.5t12 41q0 26 -9 40.5t-26.5 21t-42.5 8
t-57 1.5h-87q-14 -11 -26.5 -26t-12.5 -43zM35 363q0 55 29 87.5t69 49.5t81 22t65 5t48 -2.5t47 -6.5q5 -1 15.5 -3t22 -4t22 -3.5t14.5 -1.5q45 0 84.5 2t56.5 3q-2 -8 -4 -18.5t-2 -20.5q0 -22 5 -40q-17 2 -43 4t-43 2q14 -20 21 -38.5t7 -44.5q0 -45 -21.5 -76
t-54.5 -50t-73.5 -27t-78.5 -8q-30 0 -44.5 2.5t-19.5 2.5q-12 0 -21 -12t-9 -23q0 -24 24.5 -29t89.5 -5h63q23 0 56.5 -2.5t65 -16t54 -43t22.5 -81.5q0 -65 -28 -111.5t-73.5 -77.5t-102 -45.5t-113.5 -14.5q-14 0 -38 1.5t-52 6.5t-56 15t-51 25.5t-37.5 38.5t-14.5 55
q0 26 10.5 43.5t27 29.5t36.5 19.5t39 13.5q-37 14 -60 37.5t-23 65.5q0 27 11.5 47.5t29.5 35.5t39.5 24.5t31.5 12t0.5 5t-15.5 4.5q-13 4 -32 13.5t-36 27t-29 43t-12 61.5z" />
    <glyph glyph-name="h" unicode="h" horiz-adv-x="648" 
d="M60 520q0 31 -0.5 58.5t-2 55.5t-3 58.5t-3.5 67.5q28 -5 56 -7t56 -2t55.5 2t54.5 7q-2 -39 -3.5 -83.5t-3 -87.5t-2.5 -79t-1 -58l2 -1q29 39 70 57.5t79 18.5q90 0 132 -44t42 -132v-30q0 -17 -0.5 -35.5t-0.5 -37.5v-35v-48v-43q0 -22 0.5 -44t1 -42.5t1.5 -35.5
q-21 2 -49.5 5.5t-59.5 3.5q-26 0 -54.5 -3t-54.5 -6q4 75 6 147t2 147q0 20 -1 39t-6.5 35t-17 25.5t-32.5 9.5t-32.5 -13.5t-16.5 -34.5t-6 -48t-1 -54v-90q0 -58 1.5 -95t4.5 -68q-29 4 -56.5 6.5t-56.5 2.5q-27 0 -54.5 -3t-54.5 -6q3 48 6 100t3 103v317v0z" />
    <glyph glyph-name="i" unicode="i" horiz-adv-x="333" 
d="M61 672q0 21 8.5 40t23 33.5t33.5 23t41 8.5q21 0 40 -8.5t33.5 -22.5t23 -33.5t8.5 -40.5t-8.5 -40.5t-23 -33.5t-33.5 -22.5t-40 -8.5q-22 0 -41 8.5t-33.5 23t-23 33.5t-8.5 40zM62 278q0 57 -0.5 92t-1.5 60t-2.5 45.5t-3.5 48.5q28 -5 55.5 -7t56.5 -2q58 0 113 9
q-6 -82 -7.5 -150.5t-1.5 -116.5v-54q0 -23 0.5 -50l1 -54t2 -52.5t2.5 -46.5q-29 4 -58.5 6.5t-58.5 2.5q-26 0 -53 -3t-53 -6q3 36 5 62t2.5 54.5t1 66t0.5 95.5z" />
    <glyph glyph-name="j" unicode="j" horiz-adv-x="333" 
d="M68 672q0 21 8 40t22.5 33.5t33.5 23t41 8.5q21 0 40.5 -8.5t33.5 -22.5t22.5 -33.5t8.5 -40.5t-8.5 -40.5t-22.5 -33.5t-33.5 -22.5t-40.5 -8.5q-22 0 -41 8.5t-33.5 23t-22.5 33.5t-8 40zM70 291q0 24 -0.5 54.5t-1 62t-2.5 62t-5 54.5q28 -5 57.5 -7t58.5 -2
q27 0 54 2.5t54 6.5q-6 -91 -8 -179t-2 -179q0 -45 1 -90t1 -88q0 -66 -25.5 -111t-68 -73t-98 -42t-112.5 -19q0 17 -2.5 32.5t-4.5 32.5q26 2 42 11t27 21t17 25t9 24q5 23 7 65t2 94v243z" />
    <glyph glyph-name="k" unicode="k" 
d="M60 520q0 60 -2.5 120t-6.5 120q20 -4 47.5 -6.5t64.5 -2.5q38 0 64 2.5t46 6.5q-6 -103 -8.5 -205.5t-2.5 -207.5v-44q21 25 45 52.5t47 56t44.5 57t37.5 55.5q20 -5 37 -7t36 -2q21 0 37 2.5t36 6.5v-14q-39 -39 -80 -80.5t-83 -86.5l168 -302q4 -6 7 -11.5t8 -10.5
v-19q-54 9 -110 9q-59 0 -116 -9l-113 229q0 -48 3 -102.5t8 -126.5q-27 4 -54.5 6.5t-55.5 2.5q-26 0 -56.5 -3t-56.5 -6q3 51 6 101.5t3 101.5v317v0z" />
    <glyph glyph-name="l" unicode="l" horiz-adv-x="333" 
d="M62 520q0 29 -0.5 53t-1 50.5t-2.5 58.5t-5 78q28 -5 56 -7t56 -2q29 0 56.5 2t55.5 7q-2 -60 -4.5 -126.5t-2.5 -135.5v-249q0 -31 0.5 -65.5t1.5 -68.5t2 -64t2 -51q-27 4 -54.5 6.5t-55.5 2.5t-56.5 -3t-56.5 -6q3 48 6 100t3 103v317v0z" />
    <glyph glyph-name="m" unicode="m" horiz-adv-x="944" 
d="M257 445q13 15 27 29.5t32 26.5t42.5 19t57.5 7q48 0 87.5 -21.5t59.5 -66.5q13 24 31.5 40.5t39.5 27t44 15.5t44 5q50 0 82 -17t50.5 -46.5t25 -68t4.5 -82.5q0 -22 -1 -58t-1 -68v-36q0 -32 0.5 -69t3.5 -82q-28 4 -56 6.5t-54 2.5q-27 0 -54 -3t-53 -6q1 27 2.5 55.5
t2.5 60.5t1.5 70.5t0.5 85.5q0 31 -0.5 55t-5 41t-13.5 26t-26 9q-20 0 -31.5 -8.5t-17 -26t-6.5 -44t-1 -62.5v-69q0 -52 1.5 -103.5t4.5 -89.5q-26 3 -52.5 6t-52.5 3q-29 0 -57.5 -3t-57.5 -6q4 63 6 125.5t2 125.5q0 42 -1 71t-5.5 47t-14.5 26t-28 8q-19 0 -30 -9.5
t-15.5 -25t-5.5 -35.5t-1 -40v-171q0 -29 1 -61t3 -61q-29 3 -56.5 6t-56.5 3q-27 0 -54 -3t-53 -6q3 30 5 71t3 82.5t1.5 78.5t0.5 59q0 48 -1.5 106t-7.5 127q26 -4 53 -6.5t53 -2.5t51.5 2t51.5 7l-5 -79v0z" />
    <glyph glyph-name="n" unicode="n" horiz-adv-x="648" 
d="M62 339q0 54 -2 96t-7 89q25 -4 52.5 -6.5t53.5 -2.5q53 0 104 9q-1 -39 -6 -78q18 20 35.5 35t36.5 25.5t40 15.5t48 5q84 0 127 -43.5t43 -127.5v-38q0 -21 -0.5 -43t-0.5 -43v-38v-43q0 -37 0.5 -78t2.5 -73q-27 4 -54 6.5t-54 2.5q-26 0 -55 -2.5t-55 -6.5
q4 75 6 147t2 147q0 20 -1 39t-6.5 35t-16.5 25.5t-31 9.5q-22 0 -33.5 -13t-17 -34t-6.5 -48t-1 -55v-90q0 -58 1.5 -95t4.5 -68q-29 2 -56.5 5.5t-56.5 3.5q-27 0 -53.5 -3t-53.5 -6q6 64 8 129t2 131v79z" />
    <glyph glyph-name="o" unicode="o" horiz-adv-x="648" 
d="M392 262q0 38 -1.5 74t-8 64t-20 45t-38.5 17q-23 0 -36.5 -14.5t-20.5 -40t-9 -61t-2 -76.5q0 -38 1 -75.5t7.5 -67t20.5 -47.5t39 -18q26 0 39.5 16.5t20 44.5t7.5 64t1 75zM326 528q72 0 127 -21t91.5 -57.5t55 -84.5t18.5 -102q0 -67 -23 -117t-62.5 -83t-93.5 -48.5
t-116 -15.5q-64 0 -118 15t-93 47.5t-60.5 82.5t-21.5 118q0 65 23.5 115t64 83.5t94 50.5t114.5 17z" />
    <glyph glyph-name="p" unicode="p" horiz-adv-x="648" 
d="M266 -59q0 -26 1 -54.5t2 -56t2.5 -52t2.5 -40.5q-31 4 -56.5 6.5t-54.5 2.5q-27 0 -55 -2.5t-56 -6.5q5 91 7 181t2 175v138t-1 97.5t-2.5 87.5t-4.5 107l54 -6t54 -3q50 0 98 9l-4 -61q29 32 59.5 48t75.5 16q55 0 97.5 -22t72 -58.5t44.5 -84t15 -98.5
q0 -50 -14 -98.5t-41.5 -86.5t-69 -60.5t-96.5 -22.5q-45 0 -75.5 10t-56.5 41v-106zM262 260q0 -54 5 -88.5t14 -55t21.5 -28.5t27.5 -8q35 0 51 39t16 131q0 29 -1 61.5t-7.5 60.5t-20 46.5t-38.5 18.5q-24 0 -38 -17.5t-20.5 -44t-8 -57.5t-1.5 -58z" />
    <glyph glyph-name="q" unicode="q" horiz-adv-x="648" 
d="M389 524q23 -4 47.5 -6.5t53.5 -2.5q26 0 51.5 2.5t53.5 6.5l-4 -78q-3 -60 -3.5 -127t-0.5 -133v-43v-64v-76q0 -38 0.5 -74.5t1.5 -65.5t2 -44l5 -81q-28 5 -54.5 7t-55.5 2t-56.5 -2.5t-55.5 -6.5q3 51 5.5 101.5t2.5 101.5v106q-12 -10 -23 -20t-25.5 -17
t-34.5 -10.5t-50 -3.5q-56 0 -97.5 23t-68.5 61.5t-40.5 87t-13.5 96.5q0 57 16.5 105t46.5 83t71 55t89 20q32 0 55 -6.5t39 -16.5t27 -21t19 -20zM251 250q0 -25 1 -55t7.5 -55.5t20 -42.5t38.5 -17q39 0 53 44.5t14 129.5q0 29 -1 61.5t-7.5 59.5t-20 44.5t-38.5 17.5
q-38 0 -52.5 -44t-14.5 -143z" />
    <glyph glyph-name="r" unicode="r" horiz-adv-x="463" 
d="M262 388q6 24 19.5 48.5t33.5 45t46.5 33t57.5 12.5q13 0 22 -1t21 -6q-5 -25 -7.5 -45.5t-4 -40.5t-2 -43t-0.5 -54l-13 -7q-17 15 -34.5 20.5t-39.5 5.5q-30 0 -48 -9.5t-27 -26t-12 -38.5t-3 -47q0 -60 2 -117.5t6 -117.5q-29 4 -58.5 6.5t-58.5 2.5q-27 0 -54 -3
l-54 -6q6 36 8.5 88t2.5 102v65q0 50 -0.5 83.5t-1.5 61.5t-2.5 56t-3.5 68q31 -5 57 -7t53 -2q26 0 49.5 2t49.5 7l-8 -136h4z" />
    <glyph glyph-name="s" unicode="s" horiz-adv-x="481" 
d="M106 157q14 -48 46.5 -67t81.5 -19q10 0 21.5 2t21.5 6.5t16.5 13t6.5 20.5q0 19 -12.5 27.5t-44.5 18.5l-72 23q-59 19 -94 54t-35 100q0 51 19 87t51 59.5t73 34t84 10.5q38 0 79 -8t76 -21q-7 -31 -12 -62t-8 -63h-38q-11 42 -36.5 60t-70.5 18q-9 0 -20 -2t-21.5 -7
t-17.5 -13t-7 -20q0 -23 20.5 -32.5t56.5 -20.5l69 -21q118 -36 118 -155q0 -50 -20 -85.5t-52 -58t-73.5 -31.5t-85.5 -9q-42 0 -89 7t-86 20q5 34 9 67t7 67h39v0z" />
    <glyph glyph-name="t" unicode="t" horiz-adv-x="370" 
d="M278 137q0 -61 60 -61q13 0 25 3.5t24 8.5q-4 -15 -4 -31q0 -11 1 -18.5t3 -15.5q-37 -13 -75.5 -20.5t-77.5 -7.5q-87 0 -126.5 41t-39.5 120q0 36 2 74t2 75v133q-20 0 -39.5 -1t-36.5 -3l2.5 17.5t1.5 20.5q0 9 -1 20t-3 19q13 -2 36 -3t40 -1v130q52 21 102.5 47
t98.5 58l18 -12q-4 -23 -6.5 -55t-4 -64t-2 -60t-0.5 -44q25 0 47.5 1t42.5 3q-4 -17 -4 -39q0 -10 1.5 -20t2.5 -18q-23 2 -45 3t-45 1v-301v0z" />
    <glyph glyph-name="u" unicode="u" horiz-adv-x="648" 
d="M61 320q0 69 0.5 115.5t-3.5 88.5q29 -3 58.5 -6t58.5 -3q26 0 51 2.5t51 6.5q-2 -30 -3.5 -56t-2.5 -57t-1.5 -70t-0.5 -96q0 -24 1 -47t6 -40t16.5 -27.5t32.5 -10.5t32.5 13t16.5 33t6 44.5t1 48.5q0 66 -0.5 135.5t-5.5 129.5q29 -4 56.5 -6.5t56.5 -2.5q53 0 107 9
q-2 -15 -4 -38.5t-3 -52.5t-1.5 -60.5t-0.5 -63.5v-77q0 -78 1.5 -132.5t6.5 -99.5q-23 3 -52.5 6t-56.5 3q-25 0 -50.5 -3t-50.5 -6q4 39 6 77q-20 -21 -37.5 -36t-36 -24.5t-40.5 -13t-52 -3.5q-82 0 -123 44t-41 125v35q0 20 0.5 40.5t0.5 39.5v36z" />
    <glyph glyph-name="v" unicode="v" horiz-adv-x="537" 
d="M321 207q15 45 27 83t22.5 74.5t21.5 75t24 84.5q16 -4 31.5 -6.5t32.5 -2.5q32 0 65 9q-55 -132 -104 -260.5t-94 -263.5q-20 4 -39 6.5t-39 2.5q-22 0 -43 -2.5t-43 -6.5q-7 24 -14 47.5t-15 47.5q-23 73 -50 143t-53 142q-14 36 -29 72t-26 72q27 -5 59 -7t61 -2
q30 0 60.5 2t61.5 7q17 -69 34 -135t36 -135l13 -47v0z" />
    <glyph glyph-name="w" unicode="w" horiz-adv-x="852" 
d="M668 284q17 60 32 120t29 120q17 -4 32 -6.5t31 -2.5q19 0 32.5 2.5t28.5 6.5l-17 -45q-19 -50 -42.5 -113.5t-46.5 -129.5t-43.5 -127.5t-33.5 -108.5q-18 4 -37 6.5t-39 2.5q-21 0 -42.5 -2.5t-42.5 -6.5q-13 64 -35.5 138t-51.5 167q-24 -76 -46 -151.5t-43 -153.5
q-19 4 -37.5 6.5t-38.5 2.5q-22 0 -43 -2.5t-43 -6.5q-5 25 -14.5 61.5t-22 79.5t-27 89.5t-29.5 90.5q-17 52 -36.5 102t-40.5 101q30 -4 60 -6.5t61 -2.5q30 0 60 2t59 7q14 -78 31 -154.5t37 -154.5q26 76 45.5 153.5t39.5 155.5q22 -4 44.5 -6.5t45.5 -2.5q47 0 90 9
q9 -42 17 -79t17 -73l18.5 -74t21.5 -83l20 69v0z" />
    <glyph glyph-name="x" unicode="x" horiz-adv-x="537" 
d="M72 413q-17 28 -33.5 55.5t-33.5 55.5q37 -5 69 -7t58 -2q28 0 57.5 2t58.5 7q16 -40 30.5 -70t34.5 -67q20 35 40 68.5t39 68.5q20 -4 36.5 -6.5t33.5 -2.5t33 2.5t33 6.5q-43 -54 -85 -108t-84 -111q42 -78 87 -153.5t90 -151.5q-26 5 -62.5 7t-62.5 2q-29 0 -57 -3
t-57 -6q-14 35 -32.5 72.5t-41.5 73.5q-23 -35 -44.5 -71.5t-41.5 -74.5q-16 3 -31.5 6t-31.5 3q-19 0 -37.5 -3t-36.5 -6q44 54 84.5 109.5t90.5 125.5l-103 178v0z" />
    <glyph glyph-name="y" unicode="y" horiz-adv-x="537" 
d="M137 -189q8 16 19 39t23 48t23 48.5t18 40.5q-22 56 -50 127t-70 168q-26 61 -54.5 121t-51.5 121q29 -5 60 -7t64 -2q30 0 60 1.5t60 7.5q21 -70 42 -139t44 -138q24 69 47 137t40 140q18 -4 34.5 -6.5t32.5 -2.5t32 2.5t35 6.5l-16 -36q-32 -73 -73 -168.5t-82.5 -198
t-79.5 -202t-64 -181.5q-16 3 -31 6t-31 3q-17 0 -33.5 -3t-33.5 -6l36 73v0z" />
    <glyph glyph-name="z" unicode="z" horiz-adv-x="537" 
d="M512 462q-29 -36 -61 -83.5t-64 -98t-62 -100t-54 -90.5q68 0 124.5 2.5t116.5 6.5q-3 -14 -4 -26t-1 -28q0 -12 1 -23.5t4 -21.5q-32 3 -65 5t-64 2.5t-58.5 1t-47.5 0.5q-22 0 -55.5 -0.5t-71 -1t-74 -2.5t-64.5 -5q4 12 4 29q0 7 -1 15.5t-3 17.5q23 30 54 75t63.5 96
t64 103.5t55.5 97.5q-16 0 -41.5 -0.5t-54.5 -1t-59.5 -2.5t-56.5 -5q2 12 3.5 23.5t1.5 25.5q0 11 -1.5 24.5t-3.5 25.5q63 -8 126 -8.5t126 -0.5q57 0 111.5 1.5t111.5 7.5q-2 -7 -3 -15.5t-1 -16.5t1.5 -15t2.5 -15z" />
    <glyph glyph-name="braceleft" unicode="{" horiz-adv-x="400" 
d="M380 652q-35 -2 -55 -13t-30 -29t-12.5 -42t-2.5 -51v-50q0 -24 -4 -51.5t-17.5 -52t-40.5 -42.5t-73 -22q46 -5 73 -22.5t40.5 -42t17.5 -52t4 -51.5v-50q0 -27 2.5 -50.5t12.5 -41t30 -28.5t55 -12v-70q-82 2 -131.5 17t-75.5 40.5t-34.5 58t-8.5 71.5v70q0 21 -2 42
t-12.5 39t-32.5 30.5t-63 16.5v70q41 4 63 16.5t32.5 30.5t12.5 39t2 42v70q0 39 8.5 73t34.5 59.5t75.5 40.5t131.5 17v-70v0z" />
    <glyph glyph-name="bar" unicode="|" horiz-adv-x="222" 
d="M166 750v-998h-110v998h110z" />
    <glyph glyph-name="braceright" unicode="}" horiz-adv-x="400" 
d="M20 -51q35 1 55 12t30 28.5t12.5 41t2.5 50.5v50q0 24 4 51.5t17.5 52t40.5 42t73 22.5q-46 4 -73 22t-40.5 42.5t-17.5 52t-4 51.5v50q0 27 -2.5 51t-12.5 42t-30 29t-55 13v70q82 -2 131.5 -17t75.5 -40.5t34.5 -59.5t8.5 -73v-70q0 -21 2 -42t12.5 -39t33 -30.5
t62.5 -16.5v-70q-40 -4 -62.5 -16.5t-33 -30.5t-12.5 -39t-2 -42v-70q0 -39 -8.5 -71.5t-34.5 -58t-75.5 -40.5t-131.5 -17v70v0z" />
    <glyph glyph-name="asciitilde" unicode="~" horiz-adv-x="667" 
d="M36 199q3 34 14 71t30.5 67.5t49 50.5t68.5 20q33 0 71 -13t75 -29t70.5 -29t56.5 -13q20 0 34.5 9t24.5 23t16 31.5t8 33.5h77q-3 -34 -14 -71t-30.5 -67.5t-49 -50.5t-68.5 -20q-32 0 -70 13.5t-75 28.5q-38 15 -71.5 28.5t-56.5 13.5q-19 0 -34 -9t-25 -23t-16 -31
t-8 -34h-77v0z" />
    <glyph glyph-name="nonbreakingspace" unicode="&#xa0;" horiz-adv-x="296" 
 />
    <glyph glyph-name="exclamdown" unicode="&#xa1;" horiz-adv-x="333" 
d="M63 424q0 21 8 40t22.5 33.5t33.5 22.5t40 8t40 -8t33.5 -22.5t22.5 -33.5t8 -40t-8 -40t-22.5 -33t-33.5 -22.5t-40 -8.5t-40 8.5t-33.5 22.5t-22.5 33t-8 40zM251 30l14 -60t7 -62q0 -60 -28.5 -86t-76.5 -26q-49 0 -77 27t-28 79q0 16 3.5 37.5t8.5 43t10 42.5t8 36
l51 211h52z" />
    <glyph glyph-name="cent" unicode="&#xa2;" 
d="M385 448q-31 0 -50 -17.5t-29 -43t-13 -54t-3 -50.5q0 -26 3 -56t13 -58l86 279h-7zM255 4q-48 11 -84.5 35.5t-61 58.5t-37 75.5t-12.5 85.5q0 63 22 113t61 84.5t92 52.5t115 18q33 0 64 -6l34 110l54 -15l-34 -110q16 -6 31.5 -12t31.5 -14q-7 -22 -11.5 -36.5
t-8 -26.5t-6 -24.5t-5.5 -32.5h-37q-5 23 -8 36t-14 24l-95 -309q23 -16 55 -16q29 0 55 15.5t44 37.5l31 -20q-11 -23 -18.5 -43.5t-17.5 -52.5q-10 -6 -28 -12.5t-40.5 -11.5t-47 -7t-47.5 -2h-11q-7 0 -10 1l-40 -129l-53 15z" />
    <glyph glyph-name="sterling" unicode="&#xa3;" 
d="M488 536q-3 19 -8 36t-14.5 29.5t-24 20t-36.5 7.5q-32 0 -56 -21.5t-24 -54.5q0 -40 6.5 -79t6.5 -79q35 0 70 1.5t70 2.5q-3 -18 -3 -35q0 -18 3 -36q-36 1 -71.5 2.5t-70.5 1.5q-5 -20 -12 -40t-22 -40t-41.5 -41.5t-69.5 -44.5q24 0 66.5 0.5t93 2t104 3t98.5 3.5
q-2 -20 -4 -40.5t-2 -40.5q0 -47 6 -94q-69 5 -127.5 7t-109.5 2q-54 0 -117 -2t-155 -7l4 38t2 38q0 20 -2 42t-4 41q16 1 34 4.5t33.5 14t25.5 31t10 56.5q0 22 -1.5 34.5t-6.5 32.5q-25 0 -49 -1.5t-49 -2.5q1 9 2 18.5t1 18.5q0 8 -1 17t-2 17q23 -1 44.5 -2.5
t44.5 -1.5q-8 26 -10 46.5t-2 42.5q0 57 22.5 99.5t59 70t84 41t97.5 13.5q43 0 90.5 -9.5t86.5 -27.5q-6 -14 -9.5 -25t-7 -25t-7 -34t-9.5 -51h-37v0z" />
    <glyph glyph-name="currency" unicode="&#xa4;" 
d="M167 338q0 -58 36.5 -94t93.5 -36q60 0 95 36t35 94t-35 94t-95 36q-57 0 -93.5 -36t-36.5 -94zM164 543q57 39 133 39t133 -39l74 74l72 -72l-74 -74q20 -32 30 -61t10 -72q0 -40 -10 -72t-30 -61l74 -74l-72 -72l-74 74q-55 -39 -133 -39q-76 0 -133 39l-74 -74l-72 72
l74 74q-20 32 -30.5 61.5t-9.5 71.5q0 42 10.5 72t29.5 61l-74 74l72 72z" />
    <glyph glyph-name="yen" unicode="&#xa5;" 
d="M393 264q36 0 71.5 1t80.5 3q-3 -18 -3 -35q0 -18 3 -36q-35 2 -70.5 3t-81.5 1q0 -54 3.5 -106.5t8.5 -94.5q-32 6 -58.5 7.5t-47.5 1.5q-26 0 -52.5 -2.5t-55.5 -6.5q5 51 7.5 100t2.5 101q-39 0 -75.5 -1t-76.5 -3q3 18 3 37q0 18 -3 34q34 -2 72 -3t80 -1v15
q0 11 -3.5 22.5t-12.5 30.5l-7 15q-30 0 -62.5 -1t-66.5 -3q3 18 3 37q0 18 -3 34q25 -2 52.5 -3t46.5 -1q-37 75 -73 145t-75 142q33 -5 65 -7t61 -2t59 2t52 7q25 -73 54 -143.5t61 -143.5q34 72 63 143t53 144l30 -6t31 -3q17 0 33.5 2.5t30.5 6.5q-42 -70 -78.5 -141
t-71.5 -146q20 0 45.5 1t56.5 3q-3 -18 -3 -35q0 -18 3 -36q-31 2 -64.5 3t-67.5 1l-6 -12q-11 -23 -12.5 -34t-1.5 -22v-15v0z" />
    <glyph glyph-name="brokenbar" unicode="&#xa6;" horiz-adv-x="222" 
d="M166 675v-350h-110v350h110zM166 175v-348h-110v348h110z" />
    <glyph glyph-name="section" unicode="&#xa7;" 
d="M421 189q5 6 12.5 16.5t7.5 22.5q0 16 -8.5 28.5t-22 22.5t-30.5 17.5t-35 14.5q-42 16 -67 26t-42.5 18.5t-31.5 16.5t-34 20q-8 -8 -13.5 -16.5t-5.5 -25.5q0 -13 3.5 -22.5t16.5 -19.5t38 -22.5t68 -30.5q35 -15 72.5 -30.5t71.5 -35.5zM423 553q-4 10 -10.5 24
t-19 26.5t-32.5 21.5t-52 9q-10 0 -22 -3t-22 -9t-16.5 -15t-6.5 -21q0 -22 18.5 -33t57.5 -26q18 -7 39.5 -15t43.5 -17t43 -19.5t37 -22.5q35 -26 51.5 -57t16.5 -76q0 -34 -7 -58.5t-19 -43t-27 -33t-32 -27.5q27 -24 37.5 -50t10.5 -62q0 -49 -20 -84.5t-53.5 -57.5
t-76.5 -31.5t-89 -9.5t-98.5 11t-94.5 29q9 65 15 129h44q0 -22 12 -39t30.5 -29.5t42 -19.5t47.5 -7q35 0 57 15.5t22 39.5q0 9 -5.5 17.5t-17 16t-28.5 15t-40 17.5q-33 14 -70.5 29t-67.5 35q-38 26 -57.5 59.5t-19.5 81.5q0 27 4.5 48.5t14.5 40t26.5 35.5t40.5 35
q-24 23 -36 47t-12 58q0 50 19.5 84t51.5 55.5t73.5 31t85.5 9.5q40 0 84 -10t82 -24q-4 -25 -6 -41t-3.5 -28.5t-2 -24t-1.5 -26.5h-42z" />
    <glyph glyph-name="dieresis" unicode="&#xa8;" horiz-adv-x="278" 
d="M256 757q34 0 59.5 -24.5t25.5 -60.5q0 -18 -6.5 -33.5t-18 -27t-27 -18.5t-33.5 -7t-33.5 7t-27 19t-18.5 27.5t-7 32.5q0 18 7 33.5t19 27t27.5 18t32.5 6.5zM22 757q17 0 32.5 -6.5t27.5 -18t19 -27t7 -33.5t-7 -33.5t-18.5 -27t-27 -18.5t-33.5 -7q-16 0 -30.5 7
t-26 19t-18.5 27.5t-7 32.5q0 18 7 33.5t19 27t26 18t30 6.5z" />
    <glyph glyph-name="copyright" unicode="&#xa9;" horiz-adv-x="800" 
d="M540 463q-8 32 -35 48.5t-61 16.5q-37 0 -61 -13.5t-38.5 -36t-20.5 -50t-7 -56.5q0 -30 4.5 -60.5t18 -55t38 -40.5t64.5 -16q45 0 73.5 17.5t49.5 34.5l20 -10q-5 -18 -10 -35.5t-10 -35.5q-29 -10 -66 -19.5t-86 -9.5q-52 0 -97.5 15t-79 43t-53 68t-19.5 90
q0 54 20.5 96t56.5 70.5t84.5 43.5t103.5 15q39 0 79.5 -8t76.5 -22q-6 -24 -10.5 -44.5t-8.5 -45.5h-26zM93 361q0 -64 24 -120.5t65 -98.5t97.5 -66t120.5 -24q66 0 122.5 23.5t97.5 65t64 98t23 122.5q0 65 -24 121.5t-65 98t-97 65.5t-121 24q-64 0 -120 -24
t-97.5 -65.5t-65.5 -98t-24 -121.5zM33 361q0 77 28.5 143t78.5 115.5t117 77.5t143 28q77 0 143.5 -28t116.5 -77.5t78.5 -115.5t28.5 -143q0 -76 -28.5 -142t-78 -115t-116.5 -76.5t-144 -27.5t-144 27.5t-116.5 76.5t-78 115t-28.5 142z" />
    <glyph glyph-name="ordfeminine" unicode="&#xaa;" horiz-adv-x="375" 
d="M191 547q-17 -6 -27.5 -11.5t-16 -12.5t-7.5 -16t-2 -22q0 -14 5 -26t19 -12q29 0 29 34v66zM323 612q0 -12 -0.5 -27.5t-1 -32t-1 -32t-0.5 -26.5q0 -19 2.5 -33t18.5 -14q14 0 26 6q-1 -5 -1.5 -9t-0.5 -9t0.5 -9.5t1.5 -12.5q-18 -12 -43.5 -19.5t-47.5 -7.5
q-25 0 -41.5 7.5t-33.5 24.5q-17 -14 -42 -23t-51 -9q-45 0 -74.5 21t-29.5 66q0 24 9 40t24.5 26.5t37.5 18t48 14.5q23 6 36.5 9.5t21 7.5t10 8.5t2.5 11.5q0 23 -16 30t-39 7q-19 0 -37.5 -7t-29.5 -24l-23 1l-14 57q35 17 69 25.5t77 8.5q75 0 109 -28t34 -67z" />
    <glyph glyph-name="guillemotleft" unicode="&#xab;" horiz-adv-x="500" 
d="M62 313q12 16 27 37.5t30.5 44.5t30.5 46.5t27 42.5q20 -19 41 -34t47 -26q-15 -19 -30.5 -39.5t-31 -40t-29 -37.5t-24.5 -33q27 -38 55 -76.5t57 -74.5q-15 -9 -25.5 -15.5t-19.5 -13.5t-18.5 -15t-22.5 -19q-34 55 -70.5 107t-73.5 106zM266 310q12 16 27 37.5
t30.5 44.5t30.5 46.5t27 42.5q20 -19 41 -34t47 -26q-15 -19 -30.5 -39.5t-31 -40t-29 -37.5t-24.5 -33q27 -38 55 -76.5t57 -74.5q-15 -9 -25.5 -15.5t-19.5 -13.5t-18.5 -15t-22.5 -19q-34 55 -70.5 107t-73.5 106z" />
    <glyph glyph-name="logicalnot" unicode="&#xac;" horiz-adv-x="667" 
d="M494 164v185h-430v109h539v-294h-109z" />
    <glyph glyph-name="registered" unicode="&#xae;" horiz-adv-x="500" 
d="M226 516q22 0 37 5t15 32q0 25 -15.5 30.5t-36.5 5.5v-73zM358 557q0 -23 -15 -35.5t-40 -17.5q17 -26 33.5 -52.5t36.5 -52.5q-22 3 -45 3t-46 -3q-11 23 -24.5 46t-27.5 46h-4q0 -19 0.5 -44t1.5 -48q-19 3 -40 3q-19 0 -43 -3q2 16 3 40.5t1 67.5q0 20 -0.5 43.5
t-2.5 64.5q24 -3 49 -3q17 0 32.5 1.5t31.5 1.5q18 0 35.5 -2t31.5 -8.5t23 -18t9 -29.5zM76 505q0 -38 13.5 -70.5t37.5 -56t55.5 -37t67.5 -13.5t68 13.5t55.5 37.5t37 56.5t13.5 69.5q0 38 -13.5 70.5t-37 56t-55.5 37t-68 13.5t-67.5 -13.5t-55.5 -37t-37.5 -56
t-13.5 -70.5zM472 505q0 -47 -16.5 -87.5t-46 -70t-70.5 -46t-89 -16.5q-47 0 -87.5 16.5t-70.5 46t-47 70t-17 87.5q0 48 16.5 88.5t46 69.5t70 45.5t89.5 16.5q48 0 89 -16.5t70.5 -45.5t46 -69.5t16.5 -88.5z" />
    <glyph glyph-name="macron" unicode="&#xaf;" horiz-adv-x="278" 
d="M297 715v-91h-314v91h314z" />
    <glyph glyph-name="degree" unicode="&#xb0;" horiz-adv-x="400" 
d="M281 548q0 33 -23 57t-58 24q-34 0 -57.5 -23.5t-23.5 -57.5q0 -33 23.5 -57t57.5 -24q35 0 58 24.5t23 56.5zM359 548q0 -32 -12.5 -61t-34 -50.5t-50.5 -34.5t-62 -13t-61.5 12.5t-50.5 34.5t-34.5 50.5t-12.5 61.5q0 34 13 63t34.5 50.5t50.5 33.5t61 12
q33 0 61.5 -12.5t50.5 -34t34.5 -50.5t12.5 -62z" />
    <glyph glyph-name="plusminus" unicode="&#xb1;" horiz-adv-x="667" 
d="M64 4v109h539v-109h-539zM388 426h215v-109h-215v-154h-109v154h-215v109h215v154h109v-154z" />
    <glyph glyph-name="twosuperior" unicode="&#xb2;" horiz-adv-x="390" 
d="M97 555q-12 15 -33 34t-45 35q38 50 78 66.5t96 16.5q37 0 67.5 -8.5t53 -23.5t35 -35.5t12.5 -45.5q0 -24 -7.5 -43t-19.5 -34.5t-27 -28t-29 -22.5q-20 -14 -40.5 -27t-41.5 -26l-38 -24q19 0 45 0.5t54 1t55.5 2t50.5 3.5q-2 -17 -3 -29.5t-1 -24.5q0 -14 1 -30t3 -29
q-38 3 -80.5 4t-81.5 1q-42 0 -84.5 -1.5t-84.5 -3.5q2 10 2 15v17q0 8 -0.5 15t-1.5 15q15 11 36 28t42 36.5t39.5 38.5t28.5 34q21 31 27.5 63t6.5 51q0 22 -10 41.5t-35 19.5q-18 0 -29 -11t-16.5 -26.5t-7.5 -32t-3 -27.5l-14 -5v0z" />
    <glyph glyph-name="threesuperior" unicode="&#xb3;" horiz-adv-x="390" 
d="M101 408q0 -13 3.5 -27.5t10.5 -26.5t19 -19.5t28 -7.5q18 0 29.5 7t18 18t9 25t2.5 28q0 12 -2 25t-8 23.5t-16.5 17.5t-27.5 7q-7 0 -14.5 -0.5t-15.5 -1.5l2 12t1 13q0 5 -0.5 10t-1.5 13q7 -1 13.5 -1.5t12.5 -0.5q15 0 25 6t15.5 16t7.5 22.5t2 25.5
q0 28 -10.5 48.5t-38.5 20.5q-15 0 -25 -8.5t-15.5 -21t-8 -27t-3.5 -26.5l-12 -2q-6 8 -15.5 17.5t-19.5 18t-19.5 16t-15.5 12.5q31 38 66.5 52.5t84.5 14.5q26 0 55.5 -5.5t54 -17.5t40.5 -32.5t16 -50.5q0 -19 -8 -35t-21 -28t-29 -19.5t-33 -10.5q20 -2 38.5 -9
t33.5 -19.5t24 -29.5t9 -39q0 -35 -17 -59.5t-44 -40.5t-61 -23t-68 -7q-24 0 -44 2.5t-38 9t-35 18t-36 28.5q19 18 34.5 34t30.5 39l17 -4v0z" />
    <glyph glyph-name="acute" unicode="&#xb4;" horiz-adv-x="278" 
d="M166 738q14 19 32 32.5t46 13.5q26 0 45 -12.5t19 -40.5q0 -13 -6.5 -24.5t-16.5 -20.5t-21 -16t-20 -12l-122 -70h-68z" />
    <glyph glyph-name="mu" unicode="&#xb5;" horiz-adv-x="648" 
d="M586 232q0 -78 1.5 -132.5t6.5 -99.5q-23 3 -52.5 6t-56.5 3q-25 0 -50.5 -3t-50.5 -6q3 20 5 38.5t2 38.5q-19 -35 -43.5 -56t-46.5 -21q-10 0 -19 0.5t-17 5.5v-49q0 -48 2.5 -108t6.5 -111q-31 4 -56.5 6.5t-54.5 2.5q-27 0 -55 -2.5t-56 -6.5l4 81q2 28 3 55.5
t1.5 57t1 60.5t0.5 69v116q0 117 -0.5 203.5t-3.5 143.5q29 -3 58.5 -6t58.5 -3q26 0 51 2.5t51 6.5q-2 -30 -3.5 -56.5t-2.5 -58t-1.5 -73.5t-0.5 -103q0 -18 1 -38t6 -36.5t16.5 -27.5t32.5 -11t32.5 13t16.5 33t6 44.5t1 48.5q0 66 -0.5 135.5t-5.5 129.5
q29 -4 56.5 -6.5t56.5 -2.5q53 0 107 9q-2 -15 -4 -38.5t-3 -52.5t-1.5 -60.5t-0.5 -63.5v-77v0z" />
    <glyph glyph-name="paragraph" unicode="&#xb6;" horiz-adv-x="620" 
d="M232 251q-44 0 -82.5 16t-67 45.5t-44.5 70.5t-16 91q0 60 20.5 105.5t56 76t84.5 45.5t106 15h293v-80h-50v-809h-102v809h-96v-809h-102v424z" />
    <glyph glyph-name="periodcentered" unicode="&#xb7;" horiz-adv-x="296" 
d="M252 310q0 -21 -8 -40t-22.5 -33.5t-33.5 -22.5t-40 -8t-40 8t-33.5 22.5t-22.5 33.5t-8 40t8 40t22.5 33t33.5 22.5t40 8.5t40 -8.5t33.5 -22.5t22.5 -33t8 -40z" />
    <glyph glyph-name="cedilla" unicode="&#xb8;" horiz-adv-x="278" 
d="M43 -154q14 -5 31.5 -9.5t34.5 -4.5q19 0 33 9.5t14 29.5q0 11 -8.5 22.5t-31.5 11.5q-8 0 -13 -2l-10 -4q-4 2 -8.5 4.5t-8.5 4.5l47 96h46l-28 -59q11 2 19 3.5t20 1.5q30 0 48 -8.5t27 -20t12 -23.5t3 -18q0 -24 -11.5 -42t-31 -29.5t-44.5 -17.5t-52 -6
q-40 0 -63.5 5.5t-42.5 11.5l18 44v0z" />
    <glyph glyph-name="onesuperior" unicode="&#xb9;" horiz-adv-x="390" 
d="M287 703q-4 -48 -5 -102t-1 -97v-62v-37t1 -36.5t2 -39t2 -46.5q-18 2 -36.5 3.5t-38.5 1.5q-17 0 -34.5 -1.5t-37.5 -3.5q1 14 2 40t1.5 56t1 61t0.5 56v49q0 12 -0.5 23t-1.5 22q-18 -8 -36.5 -16.5t-33.5 -17.5q-10 14 -21 26.5t-23 24.5q19 6 35.5 12.5t33.5 13.5
q15 6 38 16.5t48 22t47 22.5t35 19l22 -10v0z" />
    <glyph glyph-name="ordmasculine" unicode="&#xba;" horiz-adv-x="425" 
d="M172 547q0 -19 0.5 -39.5t4.5 -37t12.5 -27t23.5 -10.5t23.5 10t12 26t4.5 36.5t1 41.5t-1 42t-4.5 37t-12 26t-23.5 10q-14 0 -22.5 -8.5t-12.5 -24t-5 -36.5t-1 -46zM20 547q0 39 15.5 69t42 50.5t62.5 30.5t76 10q47 0 82.5 -13t59.5 -34.5t36 -50.5t12 -61
q0 -40 -15 -70t-41.5 -50t-62 -30t-77.5 -10t-76.5 9.5t-60 29.5t-39.5 50t-14 70z" />
    <glyph glyph-name="guillemotright" unicode="&#xbb;" horiz-adv-x="500" 
d="M234 231q-12 -16 -27 -37.5t-30.5 -44.5t-30.5 -46t-27 -43q-20 19 -41 34t-47 26q15 19 30.5 39.5t31 40t29.5 37.5t24 33q-27 38 -55 76.5t-57 74.5q15 9 25.5 16t19.5 13.5t18.5 14.5t22.5 19q34 -55 70.5 -107t73.5 -106zM438 231q-12 -16 -27 -37.5t-30.5 -44.5
t-30.5 -46t-27 -43q-20 19 -41 34t-47 26q15 19 30.5 39.5t31 40t29.5 37.5t24 33q-27 38 -55 76.5t-57 74.5q15 9 25.5 16t19.5 13.5t18.5 14.5t22.5 19q34 -55 70.5 -107t73.5 -106z" />
    <glyph glyph-name="onequarter" unicode="&#xbc;" horiz-adv-x="900" 
d="M287 703q-4 -48 -5 -102t-1 -97v-62v-37t1 -36.5t2 -39t2 -46.5q-18 2 -36.5 3.5t-38.5 1.5q-17 0 -34.5 -1.5t-37.5 -3.5q1 14 2 40t1.5 56t1 61t0.5 56v49q0 12 -0.5 23t-1.5 22q-18 -8 -36.5 -16.5t-33.5 -17.5q-10 14 -21 26.5t-23 24.5q19 6 35.5 12.5t33.5 13.5
q15 6 38 16.5t48 22t47 22.5t35 19zM281 -23h-79l418 746h79zM594 176h95v135zM817 176q33 0 64 3q-3 -24 -3 -46q0 -11 0.5 -24t2.5 -24q-5 1 -9.5 1.5t-9.5 0.5h-20h-25q0 -30 0.5 -49t2.5 -36q-16 3 -33.5 4t-37.5 1q-17 0 -33 -1.5t-32 -3.5q1 20 2 43.5t1 40.5
q-5 1 -10 1h-9h-17q-29 0 -61.5 -0.5t-67.5 -2.5q3 26 3 46q0 10 -1 20t-2 21q21 25 44.5 57t47.5 65.5t46 66.5l40 60q15 -2 29.5 -2.5t31.5 -0.5q30 0 60 3q-1 -33 -2.5 -68.5t-1.5 -70.5v-105z" />
    <glyph glyph-name="onehalf" unicode="&#xbd;" horiz-adv-x="900" 
d="M607 275q-12 15 -33 34t-45 35q38 50 78 66.5t96 16.5q37 0 67.5 -8.5t53 -23.5t35 -35.5t12.5 -45.5q0 -24 -7.5 -43t-19.5 -34.5t-27 -28t-29 -22.5q-20 -14 -40.5 -27t-41.5 -26l-38 -24q19 0 45 0.5t54 1t55.5 2t50.5 3.5q-2 -17 -3 -29.5t-1 -24.5q0 -14 1 -30
t3 -29q-38 3 -80.5 4t-81.5 1q-42 0 -84.5 -1.5t-84.5 -3.5q2 10 2 15v17q0 8 -0.5 15t-1.5 15q15 11 36 28t42 36.5t39.5 38.5t28.5 34q21 31 27.5 63t6.5 51q0 22 -10 41.5t-35 19.5q-18 0 -29 -11t-16.5 -26.5t-7.5 -32t-3 -27.5zM287 703q-4 -48 -5 -102t-1 -97v-62v-37
t1 -36.5t2 -39t2 -46.5q-18 2 -36.5 3.5t-38.5 1.5q-17 0 -34.5 -1.5t-37.5 -3.5q1 14 2 40t1.5 56t1 61t0.5 56v49q0 12 -0.5 23t-1.5 22q-18 -8 -36.5 -16.5t-33.5 -17.5q-10 14 -21 26.5t-23 24.5q19 6 35.5 12.5t33.5 13.5q15 6 38 16.5t48 22t47 22.5t35 19zM276 -23
h-79l418 746h79z" />
    <glyph glyph-name="threequarters" unicode="&#xbe;" horiz-adv-x="900" 
d="M101 408q0 -13 3.5 -27.5t10.5 -26.5t19 -19.5t28 -7.5q18 0 29.5 7t18 18t9 25t2.5 28q0 12 -2 25t-8 23.5t-16.5 17.5t-27.5 7q-7 0 -14.5 -0.5t-15.5 -1.5l2 12t1 13q0 5 -0.5 10t-1.5 13q7 -1 13.5 -1.5t12.5 -0.5q15 0 25 6t15.5 16t7.5 22.5t2 25.5
q0 28 -10.5 48.5t-38.5 20.5q-15 0 -25 -8.5t-15.5 -21t-8 -27t-3.5 -26.5l-12 -2q-6 8 -15.5 17.5t-19.5 18t-19.5 16t-15.5 12.5q31 38 66.5 52.5t84.5 14.5q26 0 55.5 -5.5t54 -17.5t40.5 -32.5t16 -50.5q0 -19 -8 -35t-21 -28t-29 -19.5t-33 -10.5q20 -2 38.5 -9
t33.5 -19.5t24 -29.5t9 -39q0 -35 -17 -59.5t-44 -40.5t-61 -23t-68 -7q-24 0 -44 2.5t-38 9t-35 18t-36 28.5q19 18 34.5 34t30.5 39zM291 -23h-79l418 746h79zM594 176h95v135zM817 176q33 0 64 3q-3 -24 -3 -46q0 -11 0.5 -24t2.5 -24q-5 1 -9.5 1.5t-9.5 0.5h-20h-25
q0 -30 0.5 -49t2.5 -36q-16 3 -33.5 4t-37.5 1q-17 0 -33 -1.5t-32 -3.5q1 20 2 43.5t1 40.5q-5 1 -10 1h-9h-17q-29 0 -61.5 -0.5t-67.5 -2.5q3 26 3 46q0 10 -1 20t-2 21q21 25 44.5 57t47.5 65.5t46 66.5l40 60q15 -2 29.5 -2.5t31.5 -0.5q30 0 60 3q-1 -33 -2.5 -68.5
t-1.5 -70.5v-105z" />
    <glyph glyph-name="questiondown" unicode="&#xbf;" horiz-adv-x="426" 
d="M111 424q0 21 8 40t22.5 33.5t33.5 22.5t40 8t40 -8t33.5 -22.5t22.5 -33.5t8 -40t-8 -40t-22.5 -33t-33.5 -22.5t-40 -8.5t-40 8.5t-33.5 22.5t-22.5 33t-8 40zM85 205q7 16 12 31.5t10 31.5q15 3 31 5t38 2q51 0 84.5 -13.5t53.5 -33.5t28.5 -43t8.5 -43
q0 -28 -7.5 -49t-20.5 -38.5t-30.5 -33t-37.5 -31.5q-16 -15 -30 -29t-14 -37q0 -20 16 -33.5t39 -13.5q26 0 53 13.5t44 48.5h24q1 -29 2.5 -51.5t6.5 -51.5q-24 -8 -44 -15t-39.5 -12.5t-40 -8.5t-45.5 -3q-51 0 -90 14t-65.5 36.5t-39.5 52t-13 59.5q0 22 4.5 38
t14.5 31.5t27 31.5t42 36q15 12 30 22.5t26.5 20t18.5 19t7 20.5q0 17 -11 27.5t-30 10.5q-20 0 -31.5 -6.5t-19.5 -12.5z" />
    <glyph glyph-name="Agrave" unicode="&#xc0;" horiz-adv-x="722" 
d="M256 826q-10 6 -21 13t-20 15.5t-15 19.5t-6 24q0 28 18.5 41.5t43.5 13.5q26 0 45 -14t33 -33l111 -150h-67zM204 233q11 -1 22 -1h22h44h44h22t22 1l-86 233zM175 143q-14 -35 -24 -71t-21 -72q-17 4 -33.5 6.5t-34.5 2.5q-17 0 -33.5 -2.5t-30.5 -6.5l59 133
q14 30 31 69.5t35.5 84.5t38.5 94l40 98q11 28 25 64.5t27 72t24 64t16 40.5q17 -4 35 -6.5t35 -2.5q18 0 36 2.5t35 6.5q11 -36 28 -84.5t36.5 -102t40 -107t38.5 -99.5q21 -53 37.5 -94t31.5 -77.5t31.5 -73.5t37.5 -82q-29 6 -65 7.5t-66 1.5q-32 0 -64.5 -2.5
t-64.5 -6.5q-10 38 -20.5 73t-23.5 70q-33 0 -66 0.5t-66 0.5q-26 0 -52.5 -0.5t-52.5 -0.5z" />
    <glyph glyph-name="Aacute" unicode="&#xc1;" horiz-adv-x="722" 
d="M378 906q14 19 32 32.5t46 13.5q26 0 45 -12.5t19 -40.5q0 -13 -6.5 -24.5t-16.5 -20.5t-21 -16t-20 -12l-122 -70h-68zM204 233q11 -1 22 -1h22h44h44h22t22 1l-86 233zM175 143q-14 -35 -24 -71t-21 -72q-17 4 -33.5 6.5t-34.5 2.5q-17 0 -33.5 -2.5t-30.5 -6.5l59 133
q14 30 31 69.5t35.5 84.5t38.5 94l40 98q11 28 25 64.5t27 72t24 64t16 40.5q17 -4 35 -6.5t35 -2.5q18 0 36 2.5t35 6.5q11 -36 28 -84.5t36.5 -102t40 -107t38.5 -99.5q21 -53 37.5 -94t31.5 -77.5t31.5 -73.5t37.5 -82q-29 6 -65 7.5t-66 1.5q-32 0 -64.5 -2.5
t-64.5 -6.5q-10 38 -20.5 73t-23.5 70q-33 0 -66 0.5t-66 0.5q-26 0 -52.5 -0.5t-52.5 -0.5z" />
    <glyph glyph-name="Acircumflex" unicode="&#xc2;" horiz-adv-x="722" 
d="M298 937h125l123 -181h-79l-106 93l-107 -93h-77zM204 233q11 -1 22 -1h22h44h44h22t22 1l-86 233zM175 143q-14 -35 -24 -71t-21 -72q-17 4 -33.5 6.5t-34.5 2.5q-17 0 -33.5 -2.5t-30.5 -6.5l59 133q14 30 31 69.5t35.5 84.5t38.5 94l40 98q11 28 25 64.5t27 72t24 64
t16 40.5q17 -4 35 -6.5t35 -2.5q18 0 36 2.5t35 6.5q11 -36 28 -84.5t36.5 -102t40 -107t38.5 -99.5q21 -53 37.5 -94t31.5 -77.5t31.5 -73.5t37.5 -82q-29 6 -65 7.5t-66 1.5q-32 0 -64.5 -2.5t-64.5 -6.5q-10 38 -20.5 73t-23.5 70q-33 0 -66 0.5t-66 0.5
q-26 0 -52.5 -0.5t-52.5 -0.5z" />
    <glyph glyph-name="Atilde" unicode="&#xc3;" horiz-adv-x="722" 
d="M560 917q-4 -25 -13.5 -51t-25.5 -47t-38 -34t-51 -13q-28 0 -53 8t-46 18t-38.5 18t-31.5 8q-24 0 -33 -14.5t-14 -33.5h-53q3 24 12 49.5t24 47.5t36 36t49 14q24 0 48.5 -8t47 -18t42.5 -18t35 -8q23 0 33 15.5t16 30.5h54zM204 233q11 -1 22 -1h22h44h44h22t22 1
l-86 233zM175 143q-14 -35 -24 -71t-21 -72q-17 4 -33.5 6.5t-34.5 2.5q-17 0 -33.5 -2.5t-30.5 -6.5l59 133q14 30 31 69.5t35.5 84.5t38.5 94l40 98q11 28 25 64.5t27 72t24 64t16 40.5q17 -4 35 -6.5t35 -2.5q18 0 36 2.5t35 6.5q11 -36 28 -84.5t36.5 -102t40 -107
t38.5 -99.5q21 -53 37.5 -94t31.5 -77.5t31.5 -73.5t37.5 -82q-29 6 -65 7.5t-66 1.5q-32 0 -64.5 -2.5t-64.5 -6.5q-10 38 -20.5 73t-23.5 70q-33 0 -66 0.5t-66 0.5q-26 0 -52.5 -0.5t-52.5 -0.5z" />
    <glyph glyph-name="Adieresis" unicode="&#xc4;" horiz-adv-x="722" 
d="M478 925q34 0 59.5 -24.5t25.5 -60.5q0 -18 -6.5 -33.5t-18 -27t-27 -18.5t-33.5 -7t-33.5 7t-27 19t-18.5 27.5t-7 32.5q0 18 7 33.5t19 27t27.5 18t32.5 6.5zM244 925q17 0 32.5 -6.5t27.5 -18t19 -27t7 -33.5t-7 -33.5t-18.5 -27t-27 -18.5t-33.5 -7q-17 0 -32.5 7
t-27 19t-18.5 27.5t-7 32.5q0 18 7 33.5t19 27t27.5 18t31.5 6.5zM204 233q11 -1 22 -1h22h44h44h22t22 1l-86 233zM175 143q-14 -35 -24 -71t-21 -72q-17 4 -33.5 6.5t-34.5 2.5q-17 0 -33.5 -2.5t-30.5 -6.5l59 133q14 30 31 69.5t35.5 84.5t38.5 94l40 98q11 28 25 64.5
t27 72t24 64t16 40.5q17 -4 35 -6.5t35 -2.5q18 0 36 2.5t35 6.5q11 -36 28 -84.5t36.5 -102t40 -107t38.5 -99.5q21 -53 37.5 -94t31.5 -77.5t31.5 -73.5t37.5 -82q-29 6 -65 7.5t-66 1.5q-32 0 -64.5 -2.5t-64.5 -6.5q-10 38 -20.5 73t-23.5 70q-33 0 -66 0.5t-66 0.5
q-26 0 -52.5 -0.5t-52.5 -0.5z" />
    <glyph glyph-name="Aring" unicode="&#xc5;" horiz-adv-x="722" 
d="M361 798q20 0 36 15t16 37q0 21 -15.5 36.5t-36.5 15.5t-36.5 -15.5t-15.5 -36.5q0 -22 16 -37t36 -15zM361 739q-22 0 -42.5 9t-35.5 24.5t-24 35.5t-9 42q0 23 9 43t24 35t35.5 24t42.5 9q23 0 43 -9t35 -24t24 -35t9 -43q0 -22 -9 -42t-24 -35.5t-35 -24.5t-43 -9z
M204 233q11 -1 22 -1h22h44h44h22t22 1l-86 233zM175 143q-14 -35 -24 -71t-21 -72q-17 4 -33.5 6.5t-34.5 2.5q-17 0 -33.5 -2.5t-30.5 -6.5l59 133q14 30 31 69.5t35.5 84.5t38.5 94l40 98q11 28 25 64.5t27 72t24 64t16 40.5q17 -4 35 -6.5t35 -2.5q18 0 36 2.5t35 6.5
q11 -36 28 -84.5t36.5 -102t40 -107t38.5 -99.5q21 -53 37.5 -94t31.5 -77.5t31.5 -73.5t37.5 -82q-29 6 -65 7.5t-66 1.5q-32 0 -64.5 -2.5t-64.5 -6.5q-10 38 -20.5 73t-23.5 70q-33 0 -66 0.5t-66 0.5q-26 0 -52.5 -0.5t-52.5 -0.5z" />
    <glyph glyph-name="AE" unicode="&#xc6;" horiz-adv-x="926" 
d="M427 616q-51 -91 -100 -183t-98 -183q13 -1 25 -1h24h50h49h25t25 1v366zM185 160q-19 -42 -37.5 -84t-31.5 -76q-17 2 -35 5.5t-38 3.5q-19 0 -36.5 -3.5t-34.5 -5.5l25 42q28 53 49.5 89t39 65.5t33 57t34.5 61.5l70 125q15 26 34.5 61.5t40 73t39.5 74.5t33 67
q57 -5 112 -7t112 -2q38 0 72 0.5t68.5 2t71 3t79.5 3.5q-2 -14 -3.5 -26.5t-1.5 -26.5t1.5 -28t3.5 -28q-38 2 -75 4.5t-74 2.5h-86v-196q12 0 36 0.5t54.5 1.5t65.5 3t70 5q-2 -14 -3.5 -26.5t-1.5 -26.5q0 -13 1.5 -26.5t3.5 -27.5q-57 4 -113 6.5t-113 2.5v-229h51
q14 0 38.5 0.5t51.5 1.5t52.5 2.5t41.5 2.5q-2 -14 -3.5 -28.5t-1.5 -28.5q0 -13 1.5 -26t3.5 -25q-28 3 -66.5 5t-78 2.5t-75.5 1t-58 0.5q-48 0 -93.5 -1.5t-93.5 -7.5q5 27 6 61.5t1 63.5v35q-30 0 -59.5 1t-59.5 1q-31 0 -61.5 -0.5t-61.5 -1.5z" />
    <glyph glyph-name="Ccedilla" unicode="&#xc7;" horiz-adv-x="722" 
d="M381 -4q-73 4 -135.5 31t-108.5 73t-72.5 109.5t-26.5 141.5q0 90 32 159.5t87.5 117.5t130.5 72.5t160 24.5q60 0 121.5 -13.5t118.5 -35.5q-3 -17 -7.5 -33.5t-8.5 -33.5q-5 -21 -8 -41.5t-6 -41.5h-40q-13 54 -53.5 81t-94.5 27q-56 0 -93 -23t-59.5 -60t-32 -83.5
t-10.5 -93.5q0 -49 7 -100.5t27.5 -92.5t58.5 -67.5t99 -26.5q35 0 62.5 8t50.5 21t42 28t35 30l31 -17q-9 -29 -17 -58.5t-15 -59.5q-43 -16 -99 -30t-131 -15l-22 -49q11 2 19 3.5t20 1.5q30 0 48 -8.5t27 -20t12 -23.5t3 -18q0 -24 -11.5 -42t-31 -29.5t-44.5 -17.5
t-52 -6q-40 0 -63.5 5.5t-42.5 11.5l18 44q14 -5 31.5 -9.5t34.5 -4.5q19 0 33 9.5t14 29.5q0 11 -8.5 22.5t-31.5 11.5q-8 0 -13 -2l-10 -4q-4 2 -8.5 4.5t-8.5 4.5l42 88v0z" />
    <glyph glyph-name="Egrave" unicode="&#xc8;" horiz-adv-x="611" 
d="M211 826q-10 6 -21 13t-20 15.5t-15 19.5t-6 24q0 28 18.5 41.5t43.5 13.5q26 0 45 -14t33 -33l111 -150h-67zM377 101q14 0 38.5 0.5t51.5 1.5t52.5 2.5t41.5 2.5q-2 -14 -3.5 -28.5t-1.5 -28.5q0 -13 1.5 -26t3.5 -25q-61 5 -121.5 7t-120.5 2q-61 0 -122 -2t-122 -7
q3 21 4.5 40t2 44.5t1 62t0.5 93.5v109q0 79 -0.5 130.5t-1.5 90.5t-3 72t-5 74q52 -4 104 -6.5t104 -2.5q29 0 66.5 0.5t76 1t74.5 2.5t63 5q-2 -14 -3.5 -26.5t-1.5 -26.5t1.5 -28t3.5 -28q-38 2 -75 4.5t-74 2.5h-105v-196q12 0 36 0.5t56.5 1.5t71.5 3t81 5
q-2 -14 -3.5 -26.5t-1.5 -26.5q0 -26 5 -54q-30 2 -57.5 3.5t-56 3t-60.5 2t-71 0.5v-229h70z" />
    <glyph glyph-name="Eacute" unicode="&#xc9;" horiz-adv-x="611" 
d="M358 906q14 19 32 32.5t46 13.5q26 0 45 -12.5t19 -40.5q0 -13 -6.5 -24.5t-16.5 -20.5t-21 -16t-20 -12l-122 -70h-68zM377 101q14 0 38.5 0.5t51.5 1.5t52.5 2.5t41.5 2.5q-2 -14 -3.5 -28.5t-1.5 -28.5q0 -13 1.5 -26t3.5 -25q-61 5 -121.5 7t-120.5 2q-61 0 -122 -2
t-122 -7q3 21 4.5 40t2 44.5t1 62t0.5 93.5v109q0 79 -0.5 130.5t-1.5 90.5t-3 72t-5 74q52 -4 104 -6.5t104 -2.5q29 0 66.5 0.5t76 1t74.5 2.5t63 5q-2 -14 -3.5 -26.5t-1.5 -26.5t1.5 -28t3.5 -28q-38 2 -75 4.5t-74 2.5h-105v-196q12 0 36 0.5t56.5 1.5t71.5 3t81 5
q-2 -14 -3.5 -26.5t-1.5 -26.5q0 -26 5 -54q-30 2 -57.5 3.5t-56 3t-60.5 2t-71 0.5v-229h70z" />
    <glyph glyph-name="Ecircumflex" unicode="&#xca;" horiz-adv-x="611" 
d="M243 937h125l123 -181h-79l-106 93l-107 -93h-77zM377 101q14 0 38.5 0.5t51.5 1.5t52.5 2.5t41.5 2.5q-2 -14 -3.5 -28.5t-1.5 -28.5q0 -13 1.5 -26t3.5 -25q-61 5 -121.5 7t-120.5 2q-61 0 -122 -2t-122 -7q3 21 4.5 40t2 44.5t1 62t0.5 93.5v109q0 79 -0.5 130.5
t-1.5 90.5t-3 72t-5 74q52 -4 104 -6.5t104 -2.5q29 0 66.5 0.5t76 1t74.5 2.5t63 5q-2 -14 -3.5 -26.5t-1.5 -26.5t1.5 -28t3.5 -28q-38 2 -75 4.5t-74 2.5h-105v-196q12 0 36 0.5t56.5 1.5t71.5 3t81 5q-2 -14 -3.5 -26.5t-1.5 -26.5q0 -26 5 -54q-30 2 -57.5 3.5t-56 3
t-60.5 2t-71 0.5v-229h70z" />
    <glyph glyph-name="Edieresis" unicode="&#xcb;" horiz-adv-x="611" 
d="M423 925q34 0 59.5 -24.5t25.5 -60.5q0 -18 -6.5 -33.5t-18 -27t-27 -18.5t-33.5 -7t-33.5 7t-27 19t-18.5 27.5t-7 32.5q0 18 7 33.5t19 27t27.5 18t32.5 6.5zM189 925q17 0 32.5 -6.5t27.5 -18t19 -27t7 -33.5t-7 -33.5t-18.5 -27t-27 -18.5t-33.5 -7q-17 0 -32.5 7
t-27 19t-18.5 27.5t-7 32.5q0 18 7 33.5t19 27t27.5 18t31.5 6.5zM377 101q14 0 38.5 0.5t51.5 1.5t52.5 2.5t41.5 2.5q-2 -14 -3.5 -28.5t-1.5 -28.5q0 -13 1.5 -26t3.5 -25q-61 5 -121.5 7t-120.5 2q-61 0 -122 -2t-122 -7q3 21 4.5 40t2 44.5t1 62t0.5 93.5v109
q0 79 -0.5 130.5t-1.5 90.5t-3 72t-5 74q52 -4 104 -6.5t104 -2.5q29 0 66.5 0.5t76 1t74.5 2.5t63 5q-2 -14 -3.5 -26.5t-1.5 -26.5t1.5 -28t3.5 -28q-38 2 -75 4.5t-74 2.5h-105v-196q12 0 36 0.5t56.5 1.5t71.5 3t81 5q-2 -14 -3.5 -26.5t-1.5 -26.5q0 -26 5 -54
q-30 2 -57.5 3.5t-56 3t-60.5 2t-71 0.5v-229h70z" />
    <glyph glyph-name="Igrave" unicode="&#xcc;" horiz-adv-x="389" 
d="M95 826q-10 6 -21 13t-20 15.5t-15 19.5t-6 24q0 28 18.5 41.5t43.5 13.5q26 0 45 -14t33 -33l111 -150h-67zM306 332q0 -85 1.5 -172.5t8.5 -159.5q-28 5 -60.5 7t-64.5 2t-63 -3t-56 -6q5 84 7.5 165t2.5 165q0 20 -0.5 49.5t-0.5 60.5q0 32 -0.5 61.5t-0.5 49.5
q0 35 -2 79t-6 86q26 -3 60 -6t62 -3q31 0 64 2.5t59 6.5q-5 -72 -8 -142t-3 -142v-100z" />
    <glyph glyph-name="Iacute" unicode="&#xcd;" horiz-adv-x="389" 
d="M212 906q14 19 32 32.5t46 13.5q26 0 45 -12.5t19 -40.5q0 -13 -6.5 -24.5t-16.5 -20.5t-21 -16t-20 -12l-122 -70h-68zM306 332q0 -85 1.5 -172.5t8.5 -159.5q-28 5 -60.5 7t-64.5 2t-63 -3t-56 -6q5 84 7.5 165t2.5 165q0 20 -0.5 49.5t-0.5 60.5q0 32 -0.5 61.5
t-0.5 49.5q0 35 -2 79t-6 86q26 -3 60 -6t62 -3q31 0 64 2.5t59 6.5q-5 -72 -8 -142t-3 -142v-100z" />
    <glyph glyph-name="Icircumflex" unicode="&#xce;" horiz-adv-x="389" 
d="M132 937h125l123 -181h-79l-106 93l-107 -93h-77zM306 332q0 -85 1.5 -172.5t8.5 -159.5q-28 5 -60.5 7t-64.5 2t-63 -3t-56 -6q5 84 7.5 165t2.5 165q0 20 -0.5 49.5t-0.5 60.5q0 32 -0.5 61.5t-0.5 49.5q0 35 -2 79t-6 86q26 -3 60 -6t62 -3q31 0 64 2.5t59 6.5
q-5 -72 -8 -142t-3 -142v-100z" />
    <glyph glyph-name="Idieresis" unicode="&#xcf;" horiz-adv-x="389" 
d="M312 925q34 0 59.5 -24.5t25.5 -60.5q0 -18 -6.5 -33.5t-18 -27t-27 -18.5t-33.5 -7t-33.5 7t-27 19t-18.5 27.5t-7 32.5q0 18 7 33.5t19 27t27.5 18t32.5 6.5zM78 925q17 0 32.5 -6.5t27.5 -18t19 -27t7 -33.5t-7 -33.5t-18.5 -27t-27 -18.5t-33.5 -7q-17 0 -32.5 7
t-27 19t-17 27.5t-5.5 32.5q0 36 24 60.5t58 24.5zM306 332q0 -85 1.5 -172.5t8.5 -159.5q-28 5 -60.5 7t-64.5 2t-63 -3t-56 -6q5 84 7.5 165t2.5 165q0 20 -0.5 49.5t-0.5 60.5q0 32 -0.5 61.5t-0.5 49.5q0 35 -2 79t-6 86q26 -3 60 -6t62 -3q31 0 64 2.5t59 6.5
q-5 -72 -8 -142t-3 -142v-100z" />
    <glyph glyph-name="Eth" unicode="&#xd0;" horiz-adv-x="815" 
d="M779 367q0 -54 -12.5 -104.5t-35.5 -92.5t-55 -74.5t-72 -51.5q-26 -13 -47.5 -21.5t-43 -13.5t-44.5 -7t-51 -2q-52 0 -103 4.5t-103 4.5q-36 0 -71.5 -3t-70.5 -6q5 81 8 157t3 164q-20 0 -40.5 -1t-40.5 -4q3 26 3 45q0 11 -0.5 22.5t-2.5 25.5q20 -3 40 -4t41 -1
q0 75 -2.5 151.5t-6.5 160.5q30 -4 60 -6.5t60 -2.5q51 0 99.5 4.5t99.5 4.5q69 0 128 -12t117 -49q36 -23 63 -55.5t45 -70t26.5 -79t8.5 -83.5zM303 404q29 0 58.5 1t58.5 4q-2 -14 -2.5 -25.5t-0.5 -22.5q0 -19 3 -45q-29 3 -58 4t-59 1q0 -63 1 -125.5t1 -111.5
q8 -1 15 -1h15h31q51 0 84 17.5t52.5 52.5t27 88t7.5 125q0 90 -15 143t-40 80.5t-58 35.5t-69 8q-22 0 -48 -3q-2 -43 -3 -82.5t-1 -84.5v-59z" />
    <glyph glyph-name="Ntilde" unicode="&#xd1;" horiz-adv-x="796" 
d="M607 917q-4 -25 -13.5 -51t-25.5 -47t-38 -34t-51 -13q-28 0 -53 8t-46 18t-38.5 18t-31.5 8q-24 0 -33 -14.5t-14 -33.5h-53q3 24 12 49.5t24 47.5t36 36t49 14q24 0 48.5 -8t47 -18t42.5 -18t35 -8q23 0 33 15.5t16 30.5h54zM263 340q-20 23 -42 45.5t-43 45.5v-104
q0 -28 1.5 -69t3.5 -86t4.5 -90t4.5 -82q-14 4 -27.5 6.5t-32.5 2.5q-17 0 -33 -2.5t-35 -6.5q4 43 7.5 91t6 97t4 97t1.5 91q0 88 -1.5 170t-6.5 170q21 -4 42.5 -6.5t42.5 -2.5q20 0 39 2.5t38 6.5q28 -37 60.5 -76t64.5 -75t61 -68t51 -56q21 -22 38.5 -41t34 -37.5
t33.5 -37.5t37 -40q0 45 -1.5 87.5t-2.5 87.5q-1 37 -2 69.5t-2.5 63.5t-3 61t-3.5 62q20 -5 35 -7t33 -2q17 0 31 2t29 7q-2 -38 -5 -76t-5 -76q-4 -103 -6 -202t-2 -202q0 -40 1 -80t3 -80q-16 4 -38 6.5t-44 2.5q-23 0 -42 -3t-35 -6q-34 41 -64.5 77t-60 69.5
t-57.5 65.5t-57 65z" />
    <glyph glyph-name="Ograve" unicode="&#xd2;" horiz-adv-x="889" 
d="M340 826q-10 6 -21 13t-20 15.5t-15 19.5t-6 24q0 28 18.5 41.5t43.5 13.5q26 0 45 -14t33 -33l111 -150h-67zM450 73q36 0 62 14t44 36.5t29 52.5t17 61.5t8 63.5t2 59q0 43 -5.5 92.5t-23 92t-51 70.5t-89.5 28q-53 0 -85.5 -26.5t-50.5 -66.5t-24 -87.5t-6 -88.5
q0 -31 1.5 -65.5t7.5 -68t17 -63.5t30.5 -53.5t48 -37t68.5 -13.5zM442 725q86 0 161 -23.5t130.5 -69.5t87 -113.5t31.5 -156.5q0 -94 -32 -163.5t-87.5 -115.5t-131.5 -67.5t-163 -21.5q-82 0 -155 23.5t-128 70t-86.5 115t-31.5 155.5q0 90 31 158.5t85.5 115t128.5 70
t160 23.5z" />
    <glyph glyph-name="Oacute" unicode="&#xd3;" horiz-adv-x="889" 
d="M472 906q14 19 32 32.5t46 13.5q26 0 45 -12.5t19 -40.5q0 -13 -6.5 -24.5t-16.5 -20.5t-21 -16t-20 -12l-122 -70h-68zM450 73q36 0 62 14t44 36.5t29 52.5t17 61.5t8 63.5t2 59q0 43 -5.5 92.5t-23 92t-51 70.5t-89.5 28q-53 0 -85.5 -26.5t-50.5 -66.5t-24 -87.5
t-6 -88.5q0 -31 1.5 -65.5t7.5 -68t17 -63.5t30.5 -53.5t48 -37t68.5 -13.5zM442 725q86 0 161 -23.5t130.5 -69.5t87 -113.5t31.5 -156.5q0 -94 -32 -163.5t-87.5 -115.5t-131.5 -67.5t-163 -21.5q-82 0 -155 23.5t-128 70t-86.5 115t-31.5 155.5q0 90 31 158.5t85.5 115
t128.5 70t160 23.5z" />
    <glyph glyph-name="Ocircumflex" unicode="&#xd4;" horiz-adv-x="889" 
d="M382 937h125l123 -181h-79l-106 93l-107 -93h-77zM450 73q36 0 62 14t44 36.5t29 52.5t17 61.5t8 63.5t2 59q0 43 -5.5 92.5t-23 92t-51 70.5t-89.5 28q-53 0 -85.5 -26.5t-50.5 -66.5t-24 -87.5t-6 -88.5q0 -31 1.5 -65.5t7.5 -68t17 -63.5t30.5 -53.5t48 -37
t68.5 -13.5zM442 725q86 0 161 -23.5t130.5 -69.5t87 -113.5t31.5 -156.5q0 -94 -32 -163.5t-87.5 -115.5t-131.5 -67.5t-163 -21.5q-82 0 -155 23.5t-128 70t-86.5 115t-31.5 155.5q0 90 31 158.5t85.5 115t128.5 70t160 23.5z" />
    <glyph glyph-name="Otilde" unicode="&#xd5;" horiz-adv-x="889" 
d="M644 917q-4 -25 -13.5 -51t-25.5 -47t-38 -34t-51 -13q-28 0 -53 8t-46 18t-38.5 18t-31.5 8q-24 0 -33 -14.5t-14 -33.5h-53q3 24 12 49.5t24 47.5t36 36t49 14q24 0 48.5 -8t47 -18t42.5 -18t35 -8q23 0 33 15.5t16 30.5h54zM450 73q36 0 62 14t44 36.5t29 52.5
t17 61.5t8 63.5t2 59q0 43 -5.5 92.5t-23 92t-51 70.5t-89.5 28q-53 0 -85.5 -26.5t-50.5 -66.5t-24 -87.5t-6 -88.5q0 -31 1.5 -65.5t7.5 -68t17 -63.5t30.5 -53.5t48 -37t68.5 -13.5zM442 725q86 0 161 -23.5t130.5 -69.5t87 -113.5t31.5 -156.5q0 -94 -32 -163.5
t-87.5 -115.5t-131.5 -67.5t-163 -21.5q-82 0 -155 23.5t-128 70t-86.5 115t-31.5 155.5q0 90 31 158.5t85.5 115t128.5 70t160 23.5z" />
    <glyph glyph-name="Odieresis" unicode="&#xd6;" horiz-adv-x="889" 
d="M562 925q34 0 59.5 -24.5t25.5 -60.5q0 -18 -6.5 -33.5t-18 -27t-27 -18.5t-33.5 -7t-33.5 7t-27 19t-18.5 27.5t-7 32.5q0 18 7 33.5t19 27t27.5 18t32.5 6.5zM328 925q17 0 32.5 -6.5t27.5 -18t19 -27t7 -33.5t-7 -33.5t-18.5 -27t-27 -18.5t-33.5 -7q-17 0 -32.5 7
t-27 19t-18.5 27.5t-7 32.5q0 18 7 33.5t19 27t27.5 18t31.5 6.5zM450 73q36 0 62 14t44 36.5t29 52.5t17 61.5t8 63.5t2 59q0 43 -5.5 92.5t-23 92t-51 70.5t-89.5 28q-53 0 -85.5 -26.5t-50.5 -66.5t-24 -87.5t-6 -88.5q0 -31 1.5 -65.5t7.5 -68t17 -63.5t30.5 -53.5
t48 -37t68.5 -13.5zM442 725q86 0 161 -23.5t130.5 -69.5t87 -113.5t31.5 -156.5q0 -94 -32 -163.5t-87.5 -115.5t-131.5 -67.5t-163 -21.5q-82 0 -155 23.5t-128 70t-86.5 115t-31.5 155.5q0 90 31 158.5t85.5 115t128.5 70t160 23.5z" />
    <glyph glyph-name="multiply" unicode="&#xd7;" horiz-adv-x="667" 
d="M596 496l-185 -185l185 -185l-77 -77l-186 185l-184 -185l-77 77l185 185l-185 185l77 76l184 -184l186 184z" />
    <glyph glyph-name="Oslash" unicode="&#xd8;" horiz-adv-x="889" 
d="M312 157q22 -45 55.5 -64.5t82.5 -19.5q54 0 86.5 29.5t49 73t21.5 93.5t5 91q0 31 -2.5 60.5t-7.5 57.5zM579 554q-19 42 -52 65.5t-84 23.5q-53 0 -85.5 -26.5t-50.5 -66.5t-24 -87.5t-6 -88.5q0 -26 2 -64t10 -77zM156 86q-60 51 -89.5 122.5t-29.5 149.5
q0 90 31 158.5t85.5 115t128.5 70t160 23.5q69 0 128.5 -14.5t110.5 -42.5l91 98l48 -48l-82 -90q60 -51 87 -119.5t27 -146.5q0 -94 -32 -163.5t-87.5 -115.5t-131.5 -67.5t-163 -21.5q-57 0 -116 12t-110 41l-99 -107l-48 48z" />
    <glyph glyph-name="Ugrave" unicode="&#xd9;" horiz-adv-x="796" 
d="M313 826q-10 6 -21 13t-20 15.5t-15 19.5t-6 24q0 28 18.5 41.5t43.5 13.5q26 0 45 -14t33 -33l111 -150h-67zM77 302q0 126 -1.5 225t-9.5 189q33 -5 62.5 -7t62.5 -2q32 0 62.5 2t61.5 7q-4 -24 -6.5 -58.5t-4 -72.5t-2.5 -76.5t-1 -70.5v-67q0 -55 2.5 -102t16.5 -82
t45.5 -55t88.5 -20q36 0 70.5 16.5t51.5 49.5q14 27 17 54t4 61q1 18 1 36v36v72q0 63 -2.5 132t-9.5 147q20 -3 39 -6t39 -3q19 0 36 2.5t34 6.5q-3 -46 -5.5 -100t-4.5 -105t-3 -94.5t-1 -69.5q0 -45 -2 -81t-9 -66.5t-20 -57t-35 -52.5q-45 -51 -110.5 -73.5
t-144.5 -22.5q-162 0 -242 72.5t-80 235.5z" />
    <glyph glyph-name="Uacute" unicode="&#xda;" horiz-adv-x="796" 
d="M465 906q14 19 32 32.5t46 13.5q26 0 45 -12.5t19 -40.5q0 -13 -6.5 -24.5t-16.5 -20.5t-21 -16t-20 -12l-122 -70h-68zM77 302q0 126 -1.5 225t-9.5 189q33 -5 62.5 -7t62.5 -2q32 0 62.5 2t61.5 7q-4 -24 -6.5 -58.5t-4 -72.5t-2.5 -76.5t-1 -70.5v-67q0 -55 2.5 -102
t16.5 -82t45.5 -55t88.5 -20q36 0 70.5 16.5t51.5 49.5q14 27 17 54t4 61q1 18 1 36v36v72q0 63 -2.5 132t-9.5 147q20 -3 39 -6t39 -3q19 0 36 2.5t34 6.5q-3 -46 -5.5 -100t-4.5 -105t-3 -94.5t-1 -69.5q0 -45 -2 -81t-9 -66.5t-20 -57t-35 -52.5q-45 -51 -110.5 -73.5
t-144.5 -22.5q-162 0 -242 72.5t-80 235.5z" />
    <glyph glyph-name="Ucircumflex" unicode="&#xdb;" horiz-adv-x="796" 
d="M345 937h125l123 -181h-79l-106 93l-107 -93h-77zM77 302q0 126 -1.5 225t-9.5 189q33 -5 62.5 -7t62.5 -2q32 0 62.5 2t61.5 7q-4 -24 -6.5 -58.5t-4 -72.5t-2.5 -76.5t-1 -70.5v-67q0 -55 2.5 -102t16.5 -82t45.5 -55t88.5 -20q36 0 70.5 16.5t51.5 49.5q14 27 17 54
t4 61q1 18 1 36v36v72q0 63 -2.5 132t-9.5 147q20 -3 39 -6t39 -3q19 0 36 2.5t34 6.5q-3 -46 -5.5 -100t-4.5 -105t-3 -94.5t-1 -69.5q0 -45 -2 -81t-9 -66.5t-20 -57t-35 -52.5q-45 -51 -110.5 -73.5t-144.5 -22.5q-162 0 -242 72.5t-80 235.5z" />
    <glyph glyph-name="Udieresis" unicode="&#xdc;" horiz-adv-x="796" 
d="M535 925q34 0 59.5 -24.5t25.5 -60.5q0 -18 -6.5 -33.5t-18 -27t-27 -18.5t-33.5 -7t-33.5 7t-27 19t-18.5 27.5t-7 32.5q0 18 7 33.5t19 27t27.5 18t32.5 6.5zM301 925q17 0 32.5 -6.5t27.5 -18t19 -27t7 -33.5t-7 -33.5t-18.5 -27t-27 -18.5t-33.5 -7q-17 0 -32.5 7
t-27 19t-18.5 27.5t-7 32.5q0 18 7 33.5t19 27t27.5 18t31.5 6.5zM77 302q0 126 -1.5 225t-9.5 189q33 -5 62.5 -7t62.5 -2q32 0 62.5 2t61.5 7q-4 -24 -6.5 -58.5t-4 -72.5t-2.5 -76.5t-1 -70.5v-67q0 -55 2.5 -102t16.5 -82t45.5 -55t88.5 -20q36 0 70.5 16.5t51.5 49.5
q14 27 17 54t4 61q1 18 1 36v36v72q0 63 -2.5 132t-9.5 147q20 -3 39 -6t39 -3q19 0 36 2.5t34 6.5q-3 -46 -5.5 -100t-4.5 -105t-3 -94.5t-1 -69.5q0 -45 -2 -81t-9 -66.5t-20 -57t-35 -52.5q-45 -51 -110.5 -73.5t-144.5 -22.5q-162 0 -242 72.5t-80 235.5z" />
    <glyph glyph-name="Yacute" unicode="&#xdd;" horiz-adv-x="685" 
d="M410 906q14 19 32 32.5t46 13.5q26 0 45 -12.5t19 -40.5q0 -13 -6.5 -24.5t-16.5 -20.5t-21 -16t-20 -12l-122 -70h-68zM456 317q-1 -21 -1.5 -42t-0.5 -42q0 -60 3 -117.5t10 -115.5q-36 6 -65.5 7.5t-54.5 1.5q-31 0 -61 -2.5t-61 -6.5q3 36 5 80t3 85.5t1.5 75
t0.5 48.5q0 8 -5.5 20t-16.5 32q-26 51 -51 99t-54 99q-26 45 -50.5 88.5t-50.5 88.5q37 -5 73 -7t69 -2q32 0 66 2t60 7q9 -26 19 -50t25 -55.5t37 -75.5t55 -111q35 72 67.5 144.5t59.5 147.5l34 -6t34 -3q19 0 37.5 2.5t32.5 6.5q-57 -91 -107 -184.5t-99 -187.5z" />
    <glyph glyph-name="Thorn" unicode="&#xde;" horiz-adv-x="704" 
d="M447 373q0 39 -9 62.5t-24 36.5t-34.5 17.5t-41.5 4.5q-9 0 -17.5 -0.5t-16.5 -1.5q0 -38 -0.5 -69.5t-0.5 -60.5v-57v-59q5 -1 9 -1.5t9 -0.5h20q31 0 51.5 10t32.5 27t17 41t5 51zM80 335q0 37 -0.5 84.5t-2 98.5t-3.5 102t-5 96q33 -4 68.5 -5.5t65.5 -1.5q29 0 57 2
t54 5q-4 -38 -7 -75.5t-3 -68.5q29 1 55 1.5t50 0.5q49 0 97 -8.5t86.5 -30.5t62 -59.5t23.5 -96.5q0 -61 -23 -102.5t-61.5 -66.5t-88 -35.5t-103.5 -10.5q-35 0 -59 1.5t-40 3.5q0 -40 2.5 -80.5t7.5 -88.5l-56 6t-56 3q-34 0 -67.5 -2.5t-67.5 -6.5q4 48 7 88t4.5 78.5
t2 79t0.5 89.5z" />
    <glyph glyph-name="germandbls" unicode="&#xdf;" horiz-adv-x="667" 
d="M368 124q6 -11 12.5 -22t14 -19.5t18 -14t25.5 -5.5q23 0 33 12.5t10 27.5q0 23 -22.5 50.5t-66.5 71.5q-23 22 -38 38t-24 30t-12.5 28.5t-3.5 33.5q0 37 13.5 61.5t35.5 52.5q13 16 26.5 33t24 35t17.5 38t7 42q0 23 -7.5 38.5t-19.5 25.5t-26.5 14.5t-28.5 4.5
q-35 0 -54 -19t-27.5 -49.5t-10 -68t-1.5 -75.5q0 -49 1 -115t2.5 -134.5t3 -132t3.5 -106.5q-18 2 -49 5.5t-60 3.5q-34 0 -60.5 -3t-49.5 -6q1 19 2.5 44.5t2.5 52.5t2 53t1 47q0 19 -0.5 44t-0.5 51q0 27 -0.5 51.5t-0.5 44.5q0 79 5.5 145t37.5 123q23 40 55.5 63.5
t67.5 36t68 16.5t57 4q35 0 72 -7t67.5 -23.5t50 -44t19.5 -68.5q0 -40 -19 -64.5t-49 -52.5q-20 -19 -24.5 -28t-4.5 -16q0 -8 4 -16t14 -19t25.5 -26t38.5 -37t40.5 -40t29.5 -36t18.5 -38t6.5 -47q0 -52 -18.5 -93.5t-49.5 -70t-72.5 -42.5t-87.5 -14q-31 0 -51 3.5
t-42 7.5q2 17 3.5 31.5t1.5 40.5v23v12t-1 13h45v0z" />
    <glyph glyph-name="agrave" unicode="&#xe0;" horiz-adv-x="574" 
d="M182 658q-10 6 -21 13t-20 15.5t-15 19.5t-6 24q0 28 18.5 41.5t43.5 13.5q26 0 45 -14t33 -33l111 -150h-67zM221 155q0 -26 8.5 -45.5t33.5 -19.5q23 0 35.5 13t12.5 33v128q-29 -11 -47 -20.5t-27.5 -21.5t-12.5 -27.5t-3 -39.5zM23 133q0 40 13.5 66.5t38 44.5t58 30
t72.5 23q35 9 56.5 15.5t33 13.5t15.5 16t4 23q0 21 -6.5 34.5t-18.5 21t-28 10t-34 2.5q-33 0 -63 -12t-47 -42l-29 2l-20 89q54 29 105.5 43t113.5 14q57 0 98.5 -13t68.5 -34.5t40 -50.5t13 -61q0 -19 -1 -45.5t-1.5 -54t-1.5 -53t-1 -43.5t0.5 -33.5t4 -27.5t10.5 -18.5
t20 -6.5q18 0 37 11q-1 -8 -2 -15t-1 -15q0 -7 1 -13.5t2 -13.5q-28 -21 -66 -32.5t-70 -11.5q-25 0 -43 3.5t-31 11t-23 17.5t-18 20q-27 -26 -64.5 -39t-75.5 -13q-34 0 -63.5 7t-51 24t-33.5 43t-12 63z" />
    <glyph glyph-name="aacute" unicode="&#xe1;" horiz-adv-x="574" 
d="M304 738q14 19 32 32.5t46 13.5q26 0 45 -12.5t19 -40.5q0 -13 -6.5 -24.5t-16.5 -20.5t-21 -16t-20 -12l-122 -70h-68zM221 155q0 -26 8.5 -45.5t33.5 -19.5q23 0 35.5 13t12.5 33v128q-29 -11 -47 -20.5t-27.5 -21.5t-12.5 -27.5t-3 -39.5zM23 133q0 40 13.5 66.5
t38 44.5t58 30t72.5 23q35 9 56.5 15.5t33 13.5t15.5 16t4 23q0 21 -6.5 34.5t-18.5 21t-28 10t-34 2.5q-33 0 -63 -12t-47 -42l-29 2l-20 89q54 29 105.5 43t113.5 14q57 0 98.5 -13t68.5 -34.5t40 -50.5t13 -61q0 -19 -1 -45.5t-1.5 -54t-1.5 -53t-1 -43.5t0.5 -33.5
t4 -27.5t10.5 -18.5t20 -6.5q18 0 37 11q-1 -8 -2 -15t-1 -15q0 -7 1 -13.5t2 -13.5q-28 -21 -66 -32.5t-70 -11.5q-25 0 -43 3.5t-31 11t-23 17.5t-18 20q-27 -26 -64.5 -39t-75.5 -13q-34 0 -63.5 7t-51 24t-33.5 43t-12 63z" />
    <glyph glyph-name="acircumflex" unicode="&#xe2;" horiz-adv-x="574" 
d="M224 769h125l123 -181h-79l-106 93l-107 -93h-77zM221 155q0 -26 8.5 -45.5t33.5 -19.5q23 0 35.5 13t12.5 33v128q-29 -11 -47 -20.5t-27.5 -21.5t-12.5 -27.5t-3 -39.5zM23 133q0 40 13.5 66.5t38 44.5t58 30t72.5 23q35 9 56.5 15.5t33 13.5t15.5 16t4 23
q0 21 -6.5 34.5t-18.5 21t-28 10t-34 2.5q-33 0 -63 -12t-47 -42l-29 2l-20 89q54 29 105.5 43t113.5 14q57 0 98.5 -13t68.5 -34.5t40 -50.5t13 -61q0 -19 -1 -45.5t-1.5 -54t-1.5 -53t-1 -43.5t0.5 -33.5t4 -27.5t10.5 -18.5t20 -6.5q18 0 37 11q-1 -8 -2 -15t-1 -15
q0 -7 1 -13.5t2 -13.5q-28 -21 -66 -32.5t-70 -11.5q-25 0 -43 3.5t-31 11t-23 17.5t-18 20q-27 -26 -64.5 -39t-75.5 -13q-34 0 -63.5 7t-51 24t-33.5 43t-12 63z" />
    <glyph glyph-name="atilde" unicode="&#xe3;" horiz-adv-x="574" 
d="M486 749q-4 -25 -13.5 -51t-25.5 -47t-38 -34t-51 -13q-28 0 -53 8t-46 18t-38.5 18t-31.5 8q-24 0 -33 -14.5t-14 -33.5h-53q3 24 12 49.5t24 47.5t36 36t49 14q24 0 48.5 -8t47 -18t42.5 -18t35 -8q23 0 33 15.5t16 30.5h54zM221 155q0 -26 8.5 -45.5t33.5 -19.5
q23 0 35.5 13t12.5 33v128q-29 -11 -47 -20.5t-27.5 -21.5t-12.5 -27.5t-3 -39.5zM23 133q0 40 13.5 66.5t38 44.5t58 30t72.5 23q35 9 56.5 15.5t33 13.5t15.5 16t4 23q0 21 -6.5 34.5t-18.5 21t-28 10t-34 2.5q-33 0 -63 -12t-47 -42l-29 2l-20 89q54 29 105.5 43
t113.5 14q57 0 98.5 -13t68.5 -34.5t40 -50.5t13 -61q0 -19 -1 -45.5t-1.5 -54t-1.5 -53t-1 -43.5t0.5 -33.5t4 -27.5t10.5 -18.5t20 -6.5q18 0 37 11q-1 -8 -2 -15t-1 -15q0 -7 1 -13.5t2 -13.5q-28 -21 -66 -32.5t-70 -11.5q-25 0 -43 3.5t-31 11t-23 17.5t-18 20
q-27 -26 -64.5 -39t-75.5 -13q-34 0 -63.5 7t-51 24t-33.5 43t-12 63z" />
    <glyph glyph-name="adieresis" unicode="&#xe4;" horiz-adv-x="574" 
d="M404 757q34 0 59.5 -24.5t25.5 -60.5q0 -18 -6.5 -33.5t-18 -27t-27 -18.5t-33.5 -7t-33.5 7t-27 19t-18.5 27.5t-7 32.5q0 18 7 33.5t19 27t27.5 18t32.5 6.5zM170 757q17 0 32.5 -6.5t27.5 -18t19 -27t7 -33.5t-7 -33.5t-18.5 -27t-27 -18.5t-33.5 -7q-17 0 -32.5 7
t-27 19t-18.5 27.5t-7 32.5q0 18 7 33.5t19 27t27.5 18t31.5 6.5zM221 155q0 -26 8.5 -45.5t33.5 -19.5q23 0 35.5 13t12.5 33v128q-29 -11 -47 -20.5t-27.5 -21.5t-12.5 -27.5t-3 -39.5zM23 133q0 40 13.5 66.5t38 44.5t58 30t72.5 23q35 9 56.5 15.5t33 13.5t15.5 16t4 23
q0 21 -6.5 34.5t-18.5 21t-28 10t-34 2.5q-33 0 -63 -12t-47 -42l-29 2l-20 89q54 29 105.5 43t113.5 14q57 0 98.5 -13t68.5 -34.5t40 -50.5t13 -61q0 -19 -1 -45.5t-1.5 -54t-1.5 -53t-1 -43.5t0.5 -33.5t4 -27.5t10.5 -18.5t20 -6.5q18 0 37 11q-1 -8 -2 -15t-1 -15
q0 -7 1 -13.5t2 -13.5q-28 -21 -66 -32.5t-70 -11.5q-25 0 -43 3.5t-31 11t-23 17.5t-18 20q-27 -26 -64.5 -39t-75.5 -13q-34 0 -63.5 7t-51 24t-33.5 43t-12 63z" />
    <glyph glyph-name="aring" unicode="&#xe5;" horiz-adv-x="574" 
d="M287 630q20 0 36 15t16 37q0 21 -15.5 36.5t-36.5 15.5t-36.5 -15.5t-15.5 -36.5q0 -22 16 -37t36 -15zM287 571q-22 0 -42.5 9t-35.5 24.5t-24 35.5t-9 42q0 23 9 43t24 35t35.5 24t42.5 9q23 0 43 -9t35 -24t24 -35t9 -43q0 -22 -9 -42t-24 -35.5t-35 -24.5t-43 -9z
M221 155q0 -26 8.5 -45.5t33.5 -19.5q23 0 35.5 13t12.5 33v128q-29 -11 -47 -20.5t-27.5 -21.5t-12.5 -27.5t-3 -39.5zM23 133q0 40 13.5 66.5t38 44.5t58 30t72.5 23q35 9 56.5 15.5t33 13.5t15.5 16t4 23q0 21 -6.5 34.5t-18.5 21t-28 10t-34 2.5q-33 0 -63 -12t-47 -42
l-29 2l-20 89q54 29 105.5 43t113.5 14q57 0 98.5 -13t68.5 -34.5t40 -50.5t13 -61q0 -19 -1 -45.5t-1.5 -54t-1.5 -53t-1 -43.5t0.5 -33.5t4 -27.5t10.5 -18.5t20 -6.5q18 0 37 11q-1 -8 -2 -15t-1 -15q0 -7 1 -13.5t2 -13.5q-28 -21 -66 -32.5t-70 -11.5q-25 0 -43 3.5
t-31 11t-23 17.5t-18 20q-27 -26 -64.5 -39t-75.5 -13q-34 0 -63.5 7t-51 24t-33.5 43t-12 63z" />
    <glyph glyph-name="ae" unicode="&#xe6;" horiz-adv-x="852" 
d="M630 318q0 24 -0.5 49t-5.5 45.5t-16 33.5t-32 13q-22 0 -34 -13.5t-18 -34t-7 -45.5t-1 -48h114zM228 159q0 -13 2 -24.5t8 -20.5t16.5 -14.5t27.5 -5.5q23 0 34.5 13t11.5 33l2 128q-33 -11 -53 -21t-31 -22t-14.5 -27.5t-3.5 -38.5zM93 380l-5 25t-4.5 19.5t-5 20
t-6.5 25.5q23 12 44 22.5t44 18t50.5 12t63.5 4.5q24 0 43 -2.5t36 -8t34 -15.5t37 -25q12 9 25.5 18t30.5 16t39 11.5t53 5.5q60 0 113.5 -22.5t89.5 -70.5q15 -21 23.5 -44t13 -47t6.5 -48t3 -47q-20 1 -43 2t-45 1q-107 0 -217 -3q0 -30 7 -58.5t22.5 -50.5t39.5 -35.5
t58 -13.5q16 0 35 4.5t37 12.5t34.5 18.5t28.5 23.5l25 -27q-14 -26 -21 -42.5t-15 -43.5q-40 -19 -87 -29.5t-92 -10.5q-63 0 -111.5 16.5t-92.5 63.5q-38 -45 -80.5 -62.5t-102.5 -17.5q-33 0 -64.5 7t-56 23.5t-39 42.5t-14.5 63q0 41 17.5 68t45 45.5t61 30t64.5 20.5
q37 10 59.5 16.5t35 13.5t16.5 15.5t4 21.5q0 17 -8 30t-20.5 22t-29 13.5t-33.5 4.5q-32 0 -63 -12.5t-51 -40.5h-32z" />
    <glyph glyph-name="ccedilla" unicode="&#xe7;" horiz-adv-x="519" 
d="M291 -55q11 2 19 3.5t20 1.5q30 0 48 -8.5t27 -20t12 -23.5t3 -18q0 -24 -11.5 -42t-31 -29.5t-44.5 -17.5t-52 -6q-40 0 -63.5 5.5t-42.5 11.5l18 44q14 -5 31.5 -9.5t34.5 -4.5q19 0 33 9.5t14 29.5q0 11 -8.5 22.5t-31.5 11.5q-8 0 -13 -2l-10 -4q-4 2 -8.5 4.5
t-8.5 4.5l45 92q-59 3 -104 25t-76 57.5t-46.5 81t-15.5 95.5q0 66 23 116.5t62.5 84t92 50.5t111.5 17q48 0 93.5 -13.5t88.5 -33.5q-5 -17 -9.5 -31.5t-8 -28t-7 -28t-6.5 -32.5h-37q-3 17 -8.5 33t-14.5 28t-22.5 19.5t-33.5 7.5q-31 0 -50 -18t-28.5 -44.5t-12.5 -56.5
t-3 -53q0 -22 3.5 -53t14.5 -59.5t33.5 -48.5t59.5 -20q29 0 55 15.5t44 37.5l31 -20q-11 -23 -18.5 -43.5t-17.5 -52.5q-9 -6 -25 -12t-36 -10.5t-43 -7t-44 -2.5l-25 -55v0z" />
    <glyph glyph-name="egrave" unicode="&#xe8;" horiz-adv-x="574" 
d="M192 658q-10 6 -21 13t-20 15.5t-15 19.5t-6 24q0 28 18.5 41.5t43.5 13.5q26 0 45 -14t33 -33l111 -150h-67zM527 124q-7 -13 -12 -23t-9 -20t-7.5 -20.5t-7.5 -24.5q-40 -19 -87 -28t-92 -9q-59 0 -103 12t-75.5 33t-51.5 49t-32 57.5t-16.5 59t-4.5 54.5q0 54 16 102
t49 83.5t83 56.5t119 21q60 0 113.5 -23t89.5 -71q30 -43 37 -91.5t9 -93.5q-20 1 -43 2t-45 1q-108 0 -216 -3q0 -30 7 -57.5t22.5 -49.5t39.5 -35t57 -13q16 0 35 4.5t37 12t34.5 18t28.5 23.5zM354 318q0 24 -0.5 49t-5.5 45.5t-16 33.5t-32 13q-22 0 -34 -13.5
t-17.5 -34t-6.5 -45.5t-1 -48h113z" />
    <glyph glyph-name="eacute" unicode="&#xe9;" horiz-adv-x="574" 
d="M319 738q14 19 32 32.5t46 13.5q26 0 45 -12.5t19 -40.5q0 -13 -6.5 -24.5t-16.5 -20.5t-21 -16t-20 -12l-122 -70h-68zM527 124q-7 -13 -12 -23t-9 -20t-7.5 -20.5t-7.5 -24.5q-40 -19 -87 -28t-92 -9q-59 0 -103 12t-75.5 33t-51.5 49t-32 57.5t-16.5 59t-4.5 54.5
q0 54 16 102t49 83.5t83 56.5t119 21q60 0 113.5 -23t89.5 -71q30 -43 37 -91.5t9 -93.5q-20 1 -43 2t-45 1q-108 0 -216 -3q0 -30 7 -57.5t22.5 -49.5t39.5 -35t57 -13q16 0 35 4.5t37 12t34.5 18t28.5 23.5zM354 318q0 24 -0.5 49t-5.5 45.5t-16 33.5t-32 13
q-22 0 -34 -13.5t-17.5 -34t-6.5 -45.5t-1 -48h113z" />
    <glyph glyph-name="ecircumflex" unicode="&#xea;" horiz-adv-x="574" 
d="M224 769h125l123 -181h-79l-106 93l-107 -93h-77zM527 124q-7 -13 -12 -23t-9 -20t-7.5 -20.5t-7.5 -24.5q-40 -19 -87 -28t-92 -9q-59 0 -103 12t-75.5 33t-51.5 49t-32 57.5t-16.5 59t-4.5 54.5q0 54 16 102t49 83.5t83 56.5t119 21q60 0 113.5 -23t89.5 -71
q30 -43 37 -91.5t9 -93.5q-20 1 -43 2t-45 1q-108 0 -216 -3q0 -30 7 -57.5t22.5 -49.5t39.5 -35t57 -13q16 0 35 4.5t37 12t34.5 18t28.5 23.5zM354 318q0 24 -0.5 49t-5.5 45.5t-16 33.5t-32 13q-22 0 -34 -13.5t-17.5 -34t-6.5 -45.5t-1 -48h113z" />
    <glyph glyph-name="edieresis" unicode="&#xeb;" horiz-adv-x="574" 
d="M404 757q34 0 59.5 -24.5t25.5 -60.5q0 -18 -6.5 -33.5t-18 -27t-27 -18.5t-33.5 -7t-33.5 7t-27 19t-18.5 27.5t-7 32.5q0 18 7 33.5t19 27t27.5 18t32.5 6.5zM170 757q17 0 32.5 -6.5t27.5 -18t19 -27t7 -33.5t-7 -33.5t-18.5 -27t-27 -18.5t-33.5 -7q-17 0 -32.5 7
t-27 19t-18.5 27.5t-7 32.5q0 18 7 33.5t19 27t27.5 18t31.5 6.5zM527 124q-7 -13 -12 -23t-9 -20t-7.5 -20.5t-7.5 -24.5q-40 -19 -87 -28t-92 -9q-59 0 -103 12t-75.5 33t-51.5 49t-32 57.5t-16.5 59t-4.5 54.5q0 54 16 102t49 83.5t83 56.5t119 21q60 0 113.5 -23
t89.5 -71q30 -43 37 -91.5t9 -93.5q-20 1 -43 2t-45 1q-108 0 -216 -3q0 -30 7 -57.5t22.5 -49.5t39.5 -35t57 -13q16 0 35 4.5t37 12t34.5 18t28.5 23.5zM354 318q0 24 -0.5 49t-5.5 45.5t-16 33.5t-32 13q-22 0 -34 -13.5t-17.5 -34t-6.5 -45.5t-1 -48h113z" />
    <glyph glyph-name="igrave" unicode="&#xec;" horiz-adv-x="333" 
d="M62 658q-10 6 -21 13t-20 15.5t-15 19.5t-6 24q0 28 18.5 41.5t43.5 13.5q26 0 45 -14t33 -33l111 -150h-67zM62 278q0 57 -0.5 92t-1.5 60t-2.5 45.5t-3.5 48.5q28 -5 55.5 -7t56.5 -2q58 0 113 9q-6 -82 -7.5 -150.5t-1.5 -116.5v-54q0 -23 0.5 -50l1 -54t2 -52.5
t2.5 -46.5q-29 4 -58.5 6.5t-58.5 2.5q-26 0 -53 -3t-53 -6q3 36 5 62t2.5 54.5t1 66t0.5 95.5z" />
    <glyph glyph-name="iacute" unicode="&#xed;" horiz-adv-x="333" 
d="M189 738q14 19 32 32.5t46 13.5q26 0 45 -12.5t19 -40.5q0 -13 -6.5 -24.5t-16.5 -20.5t-21 -16t-20 -12l-122 -70h-68zM62 278q0 57 -0.5 92t-1.5 60t-2.5 45.5t-3.5 48.5q28 -5 55.5 -7t56.5 -2q58 0 113 9q-6 -82 -7.5 -150.5t-1.5 -116.5v-54q0 -23 0.5 -50l1 -54
t2 -52.5t2.5 -46.5q-29 4 -58.5 6.5t-58.5 2.5q-26 0 -53 -3t-53 -6q3 36 5 62t2.5 54.5t1 66t0.5 95.5z" />
    <glyph glyph-name="icircumflex" unicode="&#xee;" horiz-adv-x="333" 
d="M104 769h125l123 -181h-79l-106 93l-107 -93h-74zM62 278q0 57 -0.5 92t-1.5 60t-2.5 45.5t-3.5 48.5q28 -5 55.5 -7t56.5 -2q58 0 113 9q-6 -82 -7.5 -150.5t-1.5 -116.5v-54q0 -23 0.5 -50l1 -54t2 -52.5t2.5 -46.5q-29 4 -58.5 6.5t-58.5 2.5q-26 0 -53 -3t-53 -6
q3 36 5 62t2.5 54.5t1 66t0.5 95.5z" />
    <glyph glyph-name="idieresis" unicode="&#xef;" horiz-adv-x="333" 
d="M284 757q34 0 59.5 -24.5t25.5 -60.5q0 -18 -6.5 -33.5t-18 -27t-27 -18.5t-33.5 -7t-33.5 7t-27 19t-18.5 27.5t-7 32.5q0 18 7 33.5t19 27t27.5 18t32.5 6.5zM50 757q17 0 32.5 -6.5t27.5 -18t19 -27t7 -33.5t-7 -33.5t-18.5 -27t-27 -18.5t-33.5 -7q-17 0 -32.5 7
t-26 19t-17 27.5t-6.5 32.5q0 36 24.5 60.5t57.5 24.5zM62 278q0 57 -0.5 92t-1.5 60t-2.5 45.5t-3.5 48.5q28 -5 55.5 -7t56.5 -2q58 0 113 9q-6 -82 -7.5 -150.5t-1.5 -116.5v-54q0 -23 0.5 -50l1 -54t2 -52.5t2.5 -46.5q-29 4 -58.5 6.5t-58.5 2.5q-26 0 -53 -3t-53 -6
q3 36 5 62t2.5 54.5t1 66t0.5 95.5z" />
    <glyph glyph-name="eth" unicode="&#xf0;" horiz-adv-x="648" 
d="M30 262q0 65 23.5 115t64 83.5t94 50.5t114.5 17q-23 34 -60 73q-36 -13 -71 -27t-70 -31q-5 17 -14 33t-20 32q34 8 66 19.5t67 23.5q-18 19 -38.5 38.5t-43.5 39.5q46 9 89.5 20.5t83.5 26.5h20q18 -15 34.5 -30.5t32.5 -30.5q35 13 70.5 26.5t69.5 30.5q5 -17 14 -33
t20 -32q-33 -8 -64 -18.5t-63 -21.5q78 -81 123.5 -173.5t45.5 -203.5q0 -79 -22 -134.5t-61.5 -90.5t-93.5 -50.5t-118 -15.5t-118 15t-93 47.5t-60.5 82.5t-21.5 118zM392 262q0 38 -1.5 74t-8 64t-20 45t-38.5 17q-23 0 -36.5 -14.5t-20.5 -40t-9 -61t-2 -76.5
q0 -38 1 -75.5t7.5 -67t20.5 -47.5t39 -18q26 0 39.5 16.5t20 44.5t7.5 64t1 75z" />
    <glyph glyph-name="ntilde" unicode="&#xf1;" horiz-adv-x="648" 
d="M523 749q-4 -25 -13.5 -51t-25.5 -47t-38 -34t-51 -13q-28 0 -53 8t-46 18t-38.5 18t-31.5 8q-24 0 -33 -14.5t-14 -33.5h-53q3 24 12 49.5t24 47.5t36 36t49 14q24 0 48.5 -8t47 -18t42.5 -18t35 -8q23 0 33 15.5t16 30.5h54zM62 339q0 54 -2 96t-7 89q25 -4 52.5 -6.5
t53.5 -2.5q53 0 104 9q-1 -39 -6 -78q18 20 35.5 35t36.5 25.5t40 15.5t48 5q84 0 127 -43.5t43 -127.5v-38q0 -21 -0.5 -43t-0.5 -43v-38v-43q0 -37 0.5 -78t2.5 -73q-27 4 -54 6.5t-54 2.5q-26 0 -55 -2.5t-55 -6.5q4 75 6 147t2 147q0 20 -1 39t-6.5 35t-16.5 25.5
t-31 9.5q-22 0 -33.5 -13t-17 -34t-6.5 -48t-1 -55v-90q0 -58 1.5 -95t4.5 -68q-29 2 -56.5 5.5t-56.5 3.5q-27 0 -53.5 -3t-53.5 -6q6 64 8 129t2 131v79z" />
    <glyph glyph-name="ograve" unicode="&#xf2;" horiz-adv-x="648" 
d="M219 658q-10 6 -21 13t-20 15.5t-15 19.5t-6 24q0 28 18.5 41.5t43.5 13.5q26 0 45 -14t33 -33l111 -150h-67zM392 262q0 38 -1.5 74t-8 64t-20 45t-38.5 17q-23 0 -36.5 -14.5t-20.5 -40t-9 -61t-2 -76.5q0 -38 1 -75.5t7.5 -67t20.5 -47.5t39 -18q26 0 39.5 16.5
t20 44.5t7.5 64t1 75zM326 528q72 0 127 -21t91.5 -57.5t55 -84.5t18.5 -102q0 -67 -23 -117t-62.5 -83t-93.5 -48.5t-116 -15.5q-64 0 -118 15t-93 47.5t-60.5 82.5t-21.5 118q0 65 23.5 115t64 83.5t94 50.5t114.5 17z" />
    <glyph glyph-name="oacute" unicode="&#xf3;" horiz-adv-x="648" 
d="M351 738q14 19 32 32.5t46 13.5q26 0 45 -12.5t19 -40.5q0 -13 -6.5 -24.5t-16.5 -20.5t-21 -16t-20 -12l-122 -70h-68zM392 262q0 38 -1.5 74t-8 64t-20 45t-38.5 17q-23 0 -36.5 -14.5t-20.5 -40t-9 -61t-2 -76.5q0 -38 1 -75.5t7.5 -67t20.5 -47.5t39 -18
q26 0 39.5 16.5t20 44.5t7.5 64t1 75zM326 528q72 0 127 -21t91.5 -57.5t55 -84.5t18.5 -102q0 -67 -23 -117t-62.5 -83t-93.5 -48.5t-116 -15.5q-64 0 -118 15t-93 47.5t-60.5 82.5t-21.5 118q0 65 23.5 115t64 83.5t94 50.5t114.5 17z" />
    <glyph glyph-name="ocircumflex" unicode="&#xf4;" horiz-adv-x="648" 
d="M261 769h125l123 -181h-79l-106 93l-107 -93h-77zM392 262q0 38 -1.5 74t-8 64t-20 45t-38.5 17q-23 0 -36.5 -14.5t-20.5 -40t-9 -61t-2 -76.5q0 -38 1 -75.5t7.5 -67t20.5 -47.5t39 -18q26 0 39.5 16.5t20 44.5t7.5 64t1 75zM326 528q72 0 127 -21t91.5 -57.5t55 -84.5
t18.5 -102q0 -67 -23 -117t-62.5 -83t-93.5 -48.5t-116 -15.5q-64 0 -118 15t-93 47.5t-60.5 82.5t-21.5 118q0 65 23.5 115t64 83.5t94 50.5t114.5 17z" />
    <glyph glyph-name="otilde" unicode="&#xf5;" horiz-adv-x="648" 
d="M523 749q-4 -25 -13.5 -51t-25.5 -47t-38 -34t-51 -13q-28 0 -53 8t-46 18t-38.5 18t-31.5 8q-24 0 -33 -14.5t-14 -33.5h-53q3 24 12 49.5t24 47.5t36 36t49 14q24 0 48.5 -8t47 -18t42.5 -18t35 -8q23 0 33 15.5t16 30.5h54zM392 262q0 38 -1.5 74t-8 64t-20 45
t-38.5 17q-23 0 -36.5 -14.5t-20.5 -40t-9 -61t-2 -76.5q0 -38 1 -75.5t7.5 -67t20.5 -47.5t39 -18q26 0 39.5 16.5t20 44.5t7.5 64t1 75zM326 528q72 0 127 -21t91.5 -57.5t55 -84.5t18.5 -102q0 -67 -23 -117t-62.5 -83t-93.5 -48.5t-116 -15.5q-64 0 -118 15t-93 47.5
t-60.5 82.5t-21.5 118q0 65 23.5 115t64 83.5t94 50.5t114.5 17z" />
    <glyph glyph-name="odieresis" unicode="&#xf6;" horiz-adv-x="648" 
d="M441 757q34 0 59.5 -24.5t25.5 -60.5q0 -18 -6.5 -33.5t-18 -27t-27 -18.5t-33.5 -7t-33.5 7t-27 19t-18.5 27.5t-7 32.5q0 18 7 33.5t19 27t27.5 18t32.5 6.5zM207 757q17 0 32.5 -6.5t27.5 -18t19 -27t7 -33.5t-7 -33.5t-18.5 -27t-27 -18.5t-33.5 -7q-17 0 -32.5 7
t-27 19t-18.5 27.5t-7 32.5q0 18 7 33.5t19 27t27.5 18t31.5 6.5zM392 262q0 38 -1.5 74t-8 64t-20 45t-38.5 17q-23 0 -36.5 -14.5t-20.5 -40t-9 -61t-2 -76.5q0 -38 1 -75.5t7.5 -67t20.5 -47.5t39 -18q26 0 39.5 16.5t20 44.5t7.5 64t1 75zM326 528q72 0 127 -21
t91.5 -57.5t55 -84.5t18.5 -102q0 -67 -23 -117t-62.5 -83t-93.5 -48.5t-116 -15.5q-64 0 -118 15t-93 47.5t-60.5 82.5t-21.5 118q0 65 23.5 115t64 83.5t94 50.5t114.5 17z" />
    <glyph glyph-name="divide" unicode="&#xf7;" horiz-adv-x="667" 
d="M333 197q18 0 33.5 -6.5t27 -18t18.5 -27t7 -33.5t-7 -33.5t-18.5 -27t-27 -18.5t-33.5 -7q-17 0 -32.5 7t-27 19t-18.5 27.5t-7 32.5t7 32.5t18.5 27t27 18.5t32.5 7zM333 595q18 0 33.5 -6.5t27 -18t18.5 -27t7 -33.5t-7 -33.5t-18.5 -27t-27 -18.5t-33.5 -7
q-17 0 -32.5 7t-27 19t-18.5 27.5t-7 32.5t7 32.5t18.5 27t27 18.5t32.5 7zM64 256v109h539v-109h-539z" />
    <glyph glyph-name="oslash" unicode="&#xf8;" horiz-adv-x="648" 
d="M263 139q6 -34 20 -55.5t42 -21.5q25 0 38.5 16t20 46.5t7.5 74t1 98.5zM387 384q-6 33 -19.5 55.5t-42.5 22.5q-23 0 -37 -14.5t-21 -40t-9 -61t-2 -76.5v-43zM597 548l-69 -84q45 -37 67.5 -89t22.5 -112q0 -67 -23 -117t-63 -83t-94.5 -48.5t-117.5 -15.5q-40 0 -77 4
t-72 21l-70 -82l-49 39l66 77q-45 38 -66.5 88t-21.5 108q0 64 21 115t60 86t93.5 54t121.5 19q45 0 83 -8.5t70 -23.5l74 89z" />
    <glyph glyph-name="ugrave" unicode="&#xf9;" horiz-adv-x="648" 
d="M219 658q-10 6 -21 13t-20 15.5t-15 19.5t-6 24q0 28 18.5 41.5t43.5 13.5q26 0 45 -14t33 -33l111 -150h-67zM61 320q0 69 0.5 115.5t-3.5 88.5q29 -3 58.5 -6t58.5 -3q26 0 51 2.5t51 6.5q-2 -30 -3.5 -56t-2.5 -57t-1.5 -70t-0.5 -96q0 -24 1 -47t6 -40t16.5 -27.5
t32.5 -10.5t32.5 13t16.5 33t6 44.5t1 48.5q0 66 -0.5 135.5t-5.5 129.5q29 -4 56.5 -6.5t56.5 -2.5q53 0 107 9q-2 -15 -4 -38.5t-3 -52.5t-1.5 -60.5t-0.5 -63.5v-77q0 -78 1.5 -132.5t6.5 -99.5q-23 3 -52.5 6t-56.5 3q-25 0 -50.5 -3t-50.5 -6q4 39 6 77
q-20 -21 -37.5 -36t-36 -24.5t-40.5 -13t-52 -3.5q-82 0 -123 44t-41 125v35q0 20 0.5 40.5t0.5 39.5v36z" />
    <glyph glyph-name="uacute" unicode="&#xfa;" horiz-adv-x="648" 
d="M351 738q14 19 32 32.5t46 13.5q26 0 45 -12.5t19 -40.5q0 -13 -6.5 -24.5t-16.5 -20.5t-21 -16t-20 -12l-122 -70h-68zM61 320q0 69 0.5 115.5t-3.5 88.5q29 -3 58.5 -6t58.5 -3q26 0 51 2.5t51 6.5q-2 -30 -3.5 -56t-2.5 -57t-1.5 -70t-0.5 -96q0 -24 1 -47t6 -40
t16.5 -27.5t32.5 -10.5t32.5 13t16.5 33t6 44.5t1 48.5q0 66 -0.5 135.5t-5.5 129.5q29 -4 56.5 -6.5t56.5 -2.5q53 0 107 9q-2 -15 -4 -38.5t-3 -52.5t-1.5 -60.5t-0.5 -63.5v-77q0 -78 1.5 -132.5t6.5 -99.5q-23 3 -52.5 6t-56.5 3q-25 0 -50.5 -3t-50.5 -6q4 39 6 77
q-20 -21 -37.5 -36t-36 -24.5t-40.5 -13t-52 -3.5q-82 0 -123 44t-41 125v35q0 20 0.5 40.5t0.5 39.5v36z" />
    <glyph glyph-name="ucircumflex" unicode="&#xfb;" horiz-adv-x="648" 
d="M261 769h125l123 -181h-79l-106 93l-107 -93h-77zM61 320q0 69 0.5 115.5t-3.5 88.5q29 -3 58.5 -6t58.5 -3q26 0 51 2.5t51 6.5q-2 -30 -3.5 -56t-2.5 -57t-1.5 -70t-0.5 -96q0 -24 1 -47t6 -40t16.5 -27.5t32.5 -10.5t32.5 13t16.5 33t6 44.5t1 48.5q0 66 -0.5 135.5
t-5.5 129.5q29 -4 56.5 -6.5t56.5 -2.5q53 0 107 9q-2 -15 -4 -38.5t-3 -52.5t-1.5 -60.5t-0.5 -63.5v-77q0 -78 1.5 -132.5t6.5 -99.5q-23 3 -52.5 6t-56.5 3q-25 0 -50.5 -3t-50.5 -6q4 39 6 77q-20 -21 -37.5 -36t-36 -24.5t-40.5 -13t-52 -3.5q-82 0 -123 44t-41 125v35
q0 20 0.5 40.5t0.5 39.5v36z" />
    <glyph glyph-name="udieresis" unicode="&#xfc;" horiz-adv-x="648" 
d="M441 757q34 0 59.5 -24.5t25.5 -60.5q0 -18 -6.5 -33.5t-18 -27t-27 -18.5t-33.5 -7t-33.5 7t-27 19t-18.5 27.5t-7 32.5q0 18 7 33.5t19 27t27.5 18t32.5 6.5zM207 757q17 0 32.5 -6.5t27.5 -18t19 -27t7 -33.5t-7 -33.5t-18.5 -27t-27 -18.5t-33.5 -7q-17 0 -32.5 7
t-27 19t-18.5 27.5t-7 32.5q0 18 7 33.5t19 27t27.5 18t31.5 6.5zM61 320q0 69 0.5 115.5t-3.5 88.5q29 -3 58.5 -6t58.5 -3q26 0 51 2.5t51 6.5q-2 -30 -3.5 -56t-2.5 -57t-1.5 -70t-0.5 -96q0 -24 1 -47t6 -40t16.5 -27.5t32.5 -10.5t32.5 13t16.5 33t6 44.5t1 48.5
q0 66 -0.5 135.5t-5.5 129.5q29 -4 56.5 -6.5t56.5 -2.5q53 0 107 9q-2 -15 -4 -38.5t-3 -52.5t-1.5 -60.5t-0.5 -63.5v-77q0 -78 1.5 -132.5t6.5 -99.5q-23 3 -52.5 6t-56.5 3q-25 0 -50.5 -3t-50.5 -6q4 39 6 77q-20 -21 -37.5 -36t-36 -24.5t-40.5 -13t-52 -3.5
q-82 0 -123 44t-41 125v35q0 20 0.5 40.5t0.5 39.5v36z" />
    <glyph glyph-name="yacute" unicode="&#xfd;" horiz-adv-x="537" 
d="M321 738q14 19 32 32.5t46 13.5q26 0 45 -12.5t19 -40.5q0 -13 -6.5 -24.5t-16.5 -20.5t-21 -16t-20 -12l-122 -70h-68zM137 -189q8 16 19 39t23 48t23 48.5t18 40.5q-22 56 -50 127t-70 168q-26 61 -54.5 121t-51.5 121q29 -5 60 -7t64 -2q30 0 60 1.5t60 7.5
q21 -70 42 -139t44 -138q24 69 47 137t40 140q18 -4 34.5 -6.5t32.5 -2.5t32 2.5t35 6.5l-16 -36q-32 -73 -73 -168.5t-82.5 -198t-79.5 -202t-64 -181.5q-16 3 -31 6t-31 3q-17 0 -33.5 -3t-33.5 -6z" />
    <glyph glyph-name="thorn" unicode="&#xfe;" horiz-adv-x="648" 
d="M266 -59q0 -26 1 -54.5t2 -56t2.5 -52t2.5 -40.5q-31 4 -56.5 6.5t-54.5 2.5q-27 0 -55 -2.5t-56 -6.5l4 81q2 28 2.5 64.5t1.5 77.5t1 87v93v125q0 115 -1.5 234.5t-6.5 259.5l54 -6t54 -3q25 0 50.5 2t54.5 7q-6 -75 -7 -148.5t-1 -145.5q27 29 57 45t75 16
q55 0 97.5 -22t72 -58.5t44.5 -84t15 -98.5q0 -50 -14 -98.5t-41.5 -86.5t-69 -60.5t-96.5 -22.5q-45 0 -75.5 10t-56.5 41v-106zM262 260q0 -54 5 -88.5t14 -55t21.5 -28.5t27.5 -8q35 0 51 39t16 131q0 29 -1 61.5t-7.5 60.5t-20 46.5t-38.5 18.5q-24 0 -38 -17.5
t-20.5 -44t-8 -57.5t-1.5 -58z" />
    <glyph glyph-name="ydieresis" unicode="&#xff;" horiz-adv-x="537" 
d="M396 757q34 0 59.5 -24.5t25.5 -60.5q0 -18 -6.5 -33.5t-18 -27t-27 -18.5t-33.5 -7t-33.5 7t-27 19t-18.5 27.5t-7 32.5q0 18 7 33.5t19 27t27.5 18t32.5 6.5zM162 757q17 0 32.5 -6.5t27.5 -18t19 -27t7 -33.5t-7 -33.5t-18.5 -27t-27 -18.5t-33.5 -7q-17 0 -32.5 7
t-27 19t-18.5 27.5t-7 32.5q0 18 7 33.5t19 27t27.5 18t31.5 6.5zM137 -189q8 16 19 39t23 48t23 48.5t18 40.5q-22 56 -50 127t-70 168q-26 61 -54.5 121t-51.5 121q29 -5 60 -7t64 -2q30 0 60 1.5t60 7.5q21 -70 42 -139t44 -138q24 69 47 137t40 140q18 -4 34.5 -6.5
t32.5 -2.5t32 2.5t35 6.5l-16 -36q-32 -73 -73 -168.5t-82.5 -198t-79.5 -202t-64 -181.5q-16 3 -31 6t-31 3q-17 0 -33.5 -3t-33.5 -6z" />
    <glyph glyph-name="dotlessi" unicode="&#x131;" horiz-adv-x="333" 
d="M62 278q0 57 -0.5 92t-1.5 60t-2.5 45.5t-3.5 48.5q28 -5 55.5 -7t56.5 -2q58 0 113 9q-6 -82 -7.5 -150.5t-1.5 -116.5v-54q0 -23 0.5 -50l1 -54t2 -52.5t2.5 -46.5q-29 4 -58.5 6.5t-58.5 2.5q-26 0 -53 -3t-53 -6q3 36 5 62t2.5 54.5t1 66t0.5 95.5z" />
    <glyph glyph-name="Lslash" unicode="&#x141;" horiz-adv-x="574" 
d="M306 328q0 -57 1 -113.5t1 -113.5q10 0 40 0.5t66.5 2t73.5 3.5t61 6q-2 -11 -3.5 -25.5t-1.5 -32.5q0 -14 1.5 -27.5t3.5 -27.5q-63 5 -112.5 7t-98.5 2q-54 0 -124 -2t-145 -7q12 63 13.5 125t1.5 126q-21 -12 -41.5 -24.5t-41.5 -27.5q6 47 0 94q41 18 83 46
q0 60 -1.5 104.5t-3.5 90.5t-3 94.5t-6 87.5q63 -9 128 -9q31 0 59.5 2t58.5 7q-2 -20 -3.5 -53.5t-3 -70t-2.5 -70.5t-1 -55q35 20 68.5 39.5t66.5 42.5q-6 -47 0 -94q-35 -17 -68 -36t-67 -40v-51v0z" />
    <glyph glyph-name="lslash" unicode="&#x142;" horiz-adv-x="333" 
d="M270 249q0 -31 0.5 -65.5t1.5 -68.5t2 -64t2 -51q-27 4 -54.5 6.5t-55.5 2.5t-56.5 -3t-56.5 -6q3 48 6 100t3 103v100q-21 -12 -41.5 -24t-37.5 -26q6 42 0 84q18 9 38.5 20.5t40.5 23.5v139q0 29 -0.5 53t-1 50.5t-2.5 58.5t-5 78q28 -5 56 -7t56 -2q29 0 56.5 2
t55.5 7q-2 -58 -4.5 -126t-2.5 -137q21 12 41.5 24t40.5 26q-6 -42 0 -84q-21 -9 -41.5 -20.5t-40.5 -23.5v-170v0z" />
    <glyph glyph-name="OE" unicode="&#x152;" horiz-adv-x="1093" 
d="M37 357q0 82 24.5 149.5t70.5 116t112 75.5t150 27q63 0 116.5 -19.5t92.5 -70.5q0 20 -1 40.5t-3 40.5q57 -5 113 -6t113 -1q54 0 107 2.5t111 4.5q-2 -14 -3.5 -26.5t-1.5 -26.5t1.5 -28t3.5 -28q-38 2 -75 4.5t-74 2.5h-82v-196q12 0 36 0.5t54 1.5t64 3t68 5
q-2 -14 -3.5 -26.5t-1.5 -26.5q0 -26 5 -54q-57 4 -111 6.5t-111 2.5v-229h47q14 0 38.5 0.5t51.5 1.5t52.5 2.5t41.5 2.5q-2 -14 -3.5 -28.5t-1.5 -28.5q0 -13 1.5 -26t3.5 -25q-58 5 -116 7t-116 2q-54 0 -106.5 -1.5t-109.5 -7.5q4 23 6 45.5t2 45.5q-44 -51 -93 -74
t-119 -23q-82 0 -148 25.5t-111.5 73.5t-70 115t-24.5 149zM432 73q37 0 63.5 15t44.5 39.5t29 56.5t16.5 65.5t7.5 66t2 59.5q0 41 -5 87.5t-22 87t-49 67t-86 26.5q-55 0 -87 -31.5t-48.5 -77.5t-21.5 -97t-5 -90q0 -38 6.5 -85.5t24 -89.5t49 -70.5t81.5 -28.5z" />
    <glyph glyph-name="oe" unicode="&#x153;" horiz-adv-x="907" 
d="M690 318q0 24 -0.5 49t-5.5 45.5t-16 33.5t-32 13q-22 0 -34 -13.5t-18 -34.5t-7 -45.5t-1 -47.5h114zM251 261q0 -37 1.5 -72.5t8 -63.5t20 -45.5t38.5 -17.5q43 0 55 49.5t12 149.5q0 41 -1 77.5t-7.5 63.5t-20 43t-38.5 16q-43 0 -55.5 -51t-12.5 -149zM30 258
q0 67 23.5 117.5t62.5 84t91 50.5t109 17q54 0 94.5 -14t72.5 -46q29 33 68 46.5t81 13.5q60 0 113.5 -23t89.5 -71q30 -43 37 -91.5t9 -93.5q-20 1 -43 2t-45 1q-107 0 -217 -3q0 -30 7 -57.5t22.5 -49.5t39.5 -35t57 -13q17 0 36 4t37 11.5t34.5 18.5t28.5 24l25 -27
q-7 -13 -12 -23t-9 -20t-7.5 -20.5t-7.5 -24.5q-40 -19 -87 -28t-92 -9q-53 0 -91.5 11.5t-77.5 47.5q-20 -18 -39 -30t-39 -19t-42.5 -8.5t-49.5 -1.5q-59 0 -110 16t-88.5 49t-59 81.5t-21.5 112.5z" />
    <glyph glyph-name="Scaron" unicode="&#x160;" 
d="M364 756h-125l-121 181h77l107 -93l106 93h79zM117 197q5 -26 19.5 -47t35.5 -35.5t47.5 -22.5t55.5 -8q18 0 36 4t32.5 12.5t23.5 22.5t9 33q0 18 -8 32t-28 28t-53 29.5t-83 36.5q-67 28 -109 80.5t-42 128.5q0 60 21 104t57 73t84.5 43.5t103.5 14.5q54 0 107 -12
t104 -31q-15 -34 -25.5 -74t-13.5 -75h-40q-8 45 -41.5 76t-87.5 31q-16 0 -34.5 -4t-34 -12.5t-25.5 -22t-10 -33.5q0 -19 10 -32.5t27 -24.5t41 -21t51 -22l77 -34q67 -29 96 -78t29 -121q0 -63 -21 -109t-58 -76t-88 -43.5t-110 -13.5q-33 0 -60 2.5t-52.5 6.5t-51.5 12
t-56 19q4 21 7.5 38.5t6.5 36t5.5 39.5t4.5 49h41z" />
    <glyph glyph-name="scaron" unicode="&#x161;" horiz-adv-x="481" 
d="M303 588h-125l-121 181h77l107 -93l106 93h79zM106 157q14 -48 46.5 -67t81.5 -19q10 0 21.5 2t21.5 6.5t16.5 13t6.5 20.5q0 19 -12.5 27.5t-44.5 18.5l-72 23q-59 19 -94 54t-35 100q0 51 19 87t51 59.5t73 34t84 10.5q38 0 79 -8t76 -21q-7 -31 -12 -62t-8 -63h-38
q-11 42 -36.5 60t-70.5 18q-9 0 -20 -2t-21.5 -7t-17.5 -13t-7 -20q0 -23 20.5 -32.5t56.5 -20.5l69 -21q118 -36 118 -155q0 -50 -20 -85.5t-52 -58t-73.5 -31.5t-85.5 -9q-42 0 -89 7t-86 20q5 34 9 67t7 67h39z" />
    <glyph glyph-name="Ydieresis" unicode="&#x178;" horiz-adv-x="685" 
d="M480 925q34 0 59.5 -24.5t25.5 -60.5q0 -18 -6.5 -33.5t-18 -27t-27 -18.5t-33.5 -7t-33.5 7t-27 19t-18.5 27.5t-7 32.5q0 18 7 33.5t19 27t27.5 18t32.5 6.5zM246 925q17 0 32.5 -6.5t27.5 -18t19 -27t7 -33.5t-7 -33.5t-18.5 -27t-27 -18.5t-33.5 -7q-17 0 -32.5 7
t-27 19t-18.5 27.5t-7 32.5q0 18 7 33.5t19 27t27.5 18t31.5 6.5zM456 317q-1 -21 -1.5 -42t-0.5 -42q0 -60 3 -117.5t10 -115.5q-36 6 -65.5 7.5t-54.5 1.5q-31 0 -61 -2.5t-61 -6.5q3 36 5 80t3 85.5t1.5 75t0.5 48.5q0 8 -5.5 20t-16.5 32q-26 51 -51 99t-54 99
q-26 45 -50.5 88.5t-50.5 88.5q37 -5 73 -7t69 -2q32 0 66 2t60 7q9 -26 19 -50t25 -55.5t37 -75.5t55 -111q35 72 67.5 144.5t59.5 147.5l34 -6t34 -3q19 0 37.5 2.5t32.5 6.5q-57 -91 -107 -184.5t-99 -187.5z" />
    <glyph glyph-name="Zcaron" unicode="&#x17d;" horiz-adv-x="667" 
d="M396 756h-125l-121 181h77l107 -93l106 93h79zM646 673q-14 -18 -33 -47.5t-41.5 -65t-46 -74.5t-45.5 -76.5t-41 -70.5t-32 -58l-97 -176q91 0 171.5 2.5t167.5 9.5q-2 -16 -4 -31t-2 -29q0 -27 6 -57q-78 5 -154 7t-154 2q-82 0 -164 -1.5t-163 -7.5v46
q39 58 75.5 117.5t71.5 120.5q48 81 91.5 162t88.5 165q-55 0 -95.5 -0.5t-73.5 -2t-63.5 -3.5t-66.5 -5q6 23 6 54t-6 62q81 -6 162.5 -7.5t157.5 -1.5q142 0 284 9v-43z" />
    <glyph glyph-name="zcaron" unicode="&#x17e;" horiz-adv-x="537" 
d="M331 588h-125l-121 181h77l107 -93l106 93h79zM512 462q-29 -36 -61 -83.5t-64 -98t-62 -100t-54 -90.5q68 0 124.5 2.5t116.5 6.5q-3 -14 -4 -26t-1 -28q0 -12 1 -23.5t4 -21.5q-32 3 -65 5t-64 2.5t-58.5 1t-47.5 0.5q-22 0 -55.5 -0.5t-71 -1t-74 -2.5t-64.5 -5
q4 12 4 29q0 7 -1 15.5t-3 17.5q23 30 54 75t63.5 96t64 103.5t55.5 97.5q-16 0 -41.5 -0.5t-54.5 -1t-59.5 -2.5t-56.5 -5q2 12 3.5 23.5t1.5 25.5q0 11 -1.5 24.5t-3.5 25.5q63 -8 126 -8.5t126 -0.5q57 0 111.5 1.5t111.5 7.5q-2 -7 -3 -15.5t-1 -16.5t1.5 -15t2.5 -15z
" />
    <glyph glyph-name="florin" unicode="&#x192;" 
d="M535 543q-9 12 -20 25t-23 24.5t-25 19t-26 7.5q-19 0 -24 -16.5t-10 -59.5q-1 -6 -2.5 -21.5t-2.5 -32t-2.5 -31t-2.5 -20.5l-6 -53q32 0 63 2t63 3q-3 -10 -6 -21t-3 -19v-18q0 -9 2 -15q-32 3 -65 4t-65 1q-6 -51 -14 -100.5t-18 -100.5q-8 -40 -17 -76t-23.5 -67.5
t-36.5 -62t-57 -60.5q-26 -22 -54 -37t-55 -24t-52 -12.5t-45 -3.5q-16 0 -34.5 2t-37.5 4q20 69 25 151l30 9q22 -33 43.5 -56t42.5 -23q9 0 15.5 3.5t11 13.5t7.5 28t6 47q8 81 21 166l32 199q-28 0 -55.5 -1t-55.5 -4q5 12 7.5 22t2.5 22q0 9 -0.5 15.5t-1.5 13.5
q29 -1 57 -3t57 -2q10 64 36.5 122t69.5 102.5t102 71t134 26.5q28 0 43 -1t24 -3q-11 -37 -18 -76.5t-9 -76.5l-28 -7v0z" />
    <glyph glyph-name="circumflex" unicode="&#x2c6;" horiz-adv-x="278" 
d="M76 769h125l123 -181h-79l-106 93l-107 -93h-75z" />
    <glyph glyph-name="caron" unicode="&#x2c7;" horiz-adv-x="278" 
d="M201 588h-125l-119 181h75l107 -93l106 93h79z" />
    <glyph glyph-name="breve" unicode="&#x2d8;" horiz-adv-x="278" 
d="M35 757q5 -26 12.5 -40t30.5 -25q14 -7 26 -9t26 -2q32 0 52.5 5.5t33 16t19 24.5t9.5 30h58q-1 -12 -3.5 -31t-10.5 -40.5t-23 -42t-42 -35.5q-21 -11 -42 -15.5t-45 -4.5q-28 0 -57 8t-50 25q-17 14 -26 32t-14 36.5t-6.5 36t-1.5 31.5h54v0z" />
    <glyph glyph-name="dotaccent" unicode="&#x2d9;" horiz-adv-x="278" 
d="M139 757q18 0 33.5 -6.5t27 -18t18.5 -27t7 -33.5t-7 -33.5t-18.5 -27t-27 -18.5t-33.5 -7q-17 0 -32.5 7t-27 19t-18.5 27.5t-7 32.5t7 32.5t18.5 27t27 18.5t32.5 7z" />
    <glyph glyph-name="ring" unicode="&#x2da;" horiz-adv-x="278" 
d="M139 630q20 0 36 15t16 37q0 21 -15.5 36.5t-36.5 15.5t-36.5 -15.5t-15.5 -36.5q0 -22 16 -37t36 -15zM139 571q-22 0 -42.5 9t-35.5 24.5t-24 35.5t-9 42q0 23 9 43t24 35t35.5 24t42.5 9q23 0 43 -9t35 -24t24 -35t9 -43q0 -22 -9 -42t-24 -35.5t-35 -24.5t-43 -9z
" />
    <glyph glyph-name="ogonek" unicode="&#x2db;" horiz-adv-x="278" 
d="M329 -148q-24 -29 -56.5 -48t-74.5 -19t-68.5 22.5t-26.5 65.5q0 24 12 46t30 40t39 32t39 25h50q-10 -10 -23 -22t-24 -26.5t-18.5 -30t-7.5 -31.5q0 -22 10 -36t29 -14q16 0 31.5 7.5t28.5 20.5l30 -32v0z" />
    <glyph glyph-name="tilde" unicode="&#x2dc;" horiz-adv-x="278" 
d="M338 749q-4 -25 -13.5 -51t-25.5 -47t-38 -34t-51 -13q-28 0 -53 8t-46 18t-38.5 18t-31.5 8q-24 0 -32.5 -14.5t-11.5 -33.5h-53q3 24 12 49.5t24 47.5t35 36t47 14q24 0 48.5 -8t47 -18t42.5 -18t35 -8q23 0 33 15.5t16 30.5h54v0z" />
    <glyph glyph-name="hungarumlaut" unicode="&#x2dd;" horiz-adv-x="278" 
d="M293 738q14 19 31.5 32.5t43.5 13.5q25 0 42.5 -13.5t17.5 -40.5q0 -25 -18.5 -42.5t-37.5 -28.5l-120 -71h-68zM103 738q14 19 31.5 32.5t43.5 13.5q25 0 42.5 -13.5t17.5 -40.5q0 -25 -18.5 -42.5t-37.5 -28.5l-120 -71h-65z" />
    <glyph glyph-name="gravecmb" unicode="&#x300;" horiz-adv-x="0" 
d="M-241 658q-10 6 -21 13t-19 15.5t-13.5 19.5t-5.5 24q0 28 17 41.5t42 13.5q26 0 45 -14t33 -33l111 -150h-67z" />
    <glyph glyph-name="acutecmb" unicode="&#x301;" horiz-adv-x="0" 
d="M-109 738q14 19 32 32.5t46 13.5q26 0 45 -12.5t19 -40.5q0 -13 -6.5 -24.5t-16.5 -20.5t-21 -16t-20 -12l-122 -70h-68z" />
    <glyph glyph-name="circumflexcmb" unicode="&#x302;" horiz-adv-x="0" 
d="M-199 769h125l123 -181h-79l-106 93l-107 -93h-75z" />
    <glyph glyph-name="tildecmb" unicode="&#x303;" horiz-adv-x="0" 
d="M63 749q-4 -25 -13.5 -51t-25.5 -47t-38 -34t-51 -13q-28 0 -53 8t-46 18t-38.5 18t-31.5 8q-24 0 -32.5 -14.5t-11.5 -33.5h-53q3 24 12 49.5t24 47.5t35 36t47 14q24 0 48.5 -8t47 -18t42.5 -18t35 -8q23 0 33 15.5t16 30.5h54v0z" />
    <glyph glyph-name="macroncmb" unicode="&#x304;" horiz-adv-x="0" 
d="M22 715v-91h-314v91h314z" />
    <glyph glyph-name="brevecmb" unicode="&#x306;" horiz-adv-x="0" 
d="M-240 757q5 -26 12.5 -40t30.5 -25q14 -7 26 -9t26 -2q32 0 52.5 5.5t33 16t19 24.5t9.5 30h58q-1 -12 -3.5 -31t-10.5 -40.5t-23 -42t-42 -35.5q-21 -11 -42 -15.5t-45 -4.5q-28 0 -57 8t-50 25q-17 14 -26 32t-14 36.5t-6.5 36t-1.5 31.5h54v0z" />
    <glyph glyph-name="dotaccentcmb" unicode="&#x307;" horiz-adv-x="0" 
d="M-136 757q18 0 33.5 -6.5t27 -18t18.5 -27t7 -33.5t-7 -33.5t-18.5 -27t-27 -18.5t-33.5 -7q-17 0 -32.5 7t-27 19t-18.5 27.5t-7 32.5t7 32.5t18.5 27t27 18.5t32.5 7z" />
    <glyph glyph-name="dieresiscmb" unicode="&#x308;" horiz-adv-x="0" 
d="M-19 757q34 0 59.5 -24.5t25.5 -60.5q0 -18 -6.5 -33.5t-18 -27t-27 -18.5t-33.5 -7t-33.5 7t-27 19t-18.5 27.5t-7 32.5q0 18 7 33.5t19 27t27.5 18t32.5 6.5zM-253 757q17 0 32.5 -6.5t27.5 -18t19 -27t7 -33.5t-7 -33.5t-18.5 -27t-27 -18.5t-33.5 -7q-16 0 -30.5 7
t-26 19t-18.5 27.5t-7 32.5q0 18 7 33.5t19 27t26 18t30 6.5z" />
    <glyph glyph-name="ringcmb" unicode="&#x30a;" horiz-adv-x="0" 
d="M-136 630q20 0 36 15t16 37q0 21 -15.5 36.5t-36.5 15.5t-36.5 -15.5t-15.5 -36.5q0 -22 16 -37t36 -15zM-136 571q-22 0 -42.5 9t-35.5 24.5t-24 35.5t-9 42q0 23 9 43t24 35t35.5 24t42.5 9q23 0 43 -9t35 -24t24 -35t9 -43q0 -22 -9 -42t-24 -35.5t-35 -24.5t-43 -9z
" />
    <glyph glyph-name="hungarumlautcmb" unicode="&#x30b;" horiz-adv-x="0" 
d="M18 738q14 19 31.5 32.5t43.5 13.5q25 0 42.5 -13.5t17.5 -40.5q0 -25 -18.5 -42.5t-37.5 -28.5l-120 -71h-68zM-172 738q14 19 31.5 32.5t43.5 13.5q25 0 42.5 -13.5t17.5 -40.5q0 -25 -18.5 -42.5t-37.5 -28.5l-120 -71h-65z" />
    <glyph glyph-name="caroncmb" unicode="&#x30c;" horiz-adv-x="0" 
d="M-74 588h-125l-119 181h75l107 -93l106 93h79z" />
    <glyph glyph-name="cedillacmb" unicode="&#x327;" horiz-adv-x="0" 
d="M-232 -154q14 -5 31.5 -9.5t34.5 -4.5q19 0 33 9.5t14 29.5q0 11 -8.5 22.5t-31.5 11.5q-8 0 -13 -2l-10 -4q-4 2 -8.5 4.5t-8.5 4.5l47 96h46l-28 -59q11 2 19 3.5t20 1.5q30 0 48 -8.5t27 -20t12 -23.5t3 -18q0 -24 -11.5 -42t-31 -29.5t-44.5 -17.5t-52 -6
q-40 0 -63.5 5.5t-42.5 11.5l18 44v0z" />
    <glyph glyph-name="ogonekcmb" unicode="&#x328;" horiz-adv-x="0" 
d="M54 -148q-24 -29 -56.5 -48t-74.5 -19t-68.5 22.5t-26.5 65.5q0 24 12 46t30 40t39 32t39 25h50q-10 -10 -23 -22t-24 -26.5t-18.5 -30t-7.5 -31.5q0 -22 10 -36t29 -14q16 0 31.5 7.5t28.5 20.5l30 -32v0z" />
    <glyph glyph-name="soliduslongoverlaycmb" unicode="&#x338;" horiz-adv-x="0" 
d="M-289 -32h-114l291 783h114z" />
    <glyph glyph-name="endash" unicode="&#x2013;" horiz-adv-x="500" 
d="M501 333v-116h-501v116h501z" />
    <glyph glyph-name="emdash" unicode="&#x2014;" horiz-adv-x="1000" 
d="M870 217h-740v116h740v-116z" />
    <glyph glyph-name="quoteleft" unicode="&#x2018;" horiz-adv-x="296" 
d="M227 540q-9 -37 -17.5 -68t-21 -53.5t-30.5 -35.5t-46 -13q-35 0 -58.5 22t-23.5 56q0 13 3 24.5t10.5 24.5t20 28.5t30.5 36.5l137 161l36 -19z" />
    <glyph glyph-name="quoteright" unicode="&#x2019;" horiz-adv-x="296" 
d="M69 555q9 37 17.5 68t21 53.5t30.5 35.5t46 13q35 0 58.5 -22t23.5 -56q0 -25 -14.5 -49t-49.5 -65l-137 -161l-36 19z" />
    <glyph glyph-name="quotesinglbase" unicode="&#x201a;" horiz-adv-x="296" 
d="M70 33q9 37 17.5 68t21 53.5t30.5 35.5t46 13q35 0 58.5 -22t23.5 -56q0 -25 -14.5 -49t-49.5 -65l-137 -158l-36 19z" />
    <glyph glyph-name="quotedblleft" unicode="&#x201c;" horiz-adv-x="519" 
d="M221 540q-9 -37 -17.5 -68t-21 -53.5t-30.5 -35.5t-46 -13q-35 0 -58.5 22t-23.5 56q0 13 3 24.5t10.5 24.5t20 28.5t30.5 36.5l137 161l36 -19zM455 540q-9 -37 -17.5 -68t-21 -53.5t-30.5 -35.5t-46 -13q-35 0 -58.5 22t-23.5 56q0 13 3 24.5t10.5 24.5t20 28.5
t30.5 36.5l137 161l36 -19z" />
    <glyph glyph-name="quotedblright" unicode="&#x201d;" horiz-adv-x="519" 
d="M298 555q9 37 17.5 68t21 53.5t30.5 35.5t46 13q35 0 58.5 -22t23.5 -56q0 -25 -14.5 -49t-49.5 -65l-137 -161l-36 19zM64 555q9 37 17.5 68t21 53.5t30.5 35.5t46 13q35 0 58.5 -22t23.5 -56q0 -25 -14.5 -49t-49.5 -65l-137 -161l-36 19z" />
    <glyph glyph-name="quotedblbase" unicode="&#x201e;" horiz-adv-x="519" 
d="M298 33q9 37 17.5 68t21 53.5t30.5 35.5t46 13q35 0 58.5 -22t23.5 -56q0 -25 -14.5 -49t-49.5 -65l-137 -158l-36 19zM64 33q9 37 17.5 68t21 53.5t30.5 35.5t46 13q35 0 58.5 -22t23.5 -56q0 -25 -14.5 -49t-49.5 -65l-137 -158l-36 19z" />
    <glyph glyph-name="dagger" unicode="&#x2020;" 
d="M381 298q0 -25 0.5 -66.5t1 -86t2.5 -84.5t5 -61q-20 4 -42.5 6.5t-45.5 2.5q-24 0 -48.5 -2.5t-49.5 -6.5q3 29 4.5 79t2.5 104.5t1 106.5v84q-45 0 -87 -1t-87 -3q5 19 6 33t1 36q0 20 -1 33t-6 33q45 -2 87 -3.5t87 -1.5q0 55 -2.5 108.5t-5.5 107.5q27 -5 47 -7
t49 -2q23 0 45.5 2t45.5 7q-3 -33 -5 -59.5t-2.5 -51t-1 -50t-0.5 -55.5q57 0 99 1.5t74 3.5q-7 -32 -7 -71q0 -18 2 -34t5 -33q-43 5 -86 6t-88 1v-76v0z" />
    <glyph glyph-name="daggerdbl" unicode="&#x2021;" 
d="M215 437q-33 0 -58 -0.5t-45 -1.5t-37.5 -2t-35.5 -2q3 15 4.5 30.5t1.5 38.5q0 19 -1.5 32t-4.5 30q45 -6 88 -6h88q0 45 -0.5 83t-4.5 77q23 -4 46 -6.5t46 -2.5q22 0 40.5 2t40.5 7l-4 -80t-2 -80q45 0 88 0.5t88 5.5l-4 -34t-2 -32q0 -18 2 -34t4 -31q-45 5 -89 5.5
t-87 0.5v-159q43 0 87 2t89 3l-4 -34t-2 -34q0 -14 2 -32t4 -30q-27 3 -63 4.5t-71 1.5h-42q0 -42 2 -81.5t4 -77.5q-23 3 -42.5 4.5t-42.5 1.5q-45 0 -89 -6q6 80 6 159h-59q-18 0 -33 -0.5t-28.5 -1.5t-26.5 -2t-29 -3q6 32 6 65q0 16 -2 33l-4 34q45 -2 88 -3.5t88 -1.5
v158v0z" />
    <glyph glyph-name="bullet" unicode="&#x2022;" horiz-adv-x="500" 
d="M68 359q0 39 14.5 72t39.5 57t58 38t70 14q38 0 71 -14t57.5 -38.5t39 -57.5t14.5 -71q0 -37 -14 -70.5t-38.5 -58t-58 -39t-71.5 -14.5q-37 0 -70.5 14t-58 38.5t-39 58t-14.5 71.5z" />
    <glyph glyph-name="ellipsis" unicode="&#x2026;" horiz-adv-x="1000" 
d="M604 95q0 -22 -8 -40.5t-22.5 -32.5t-33.5 -21t-40 -7t-40 7t-33.5 21t-22.5 32.5t-8 40.5q0 21 8 40t22.5 33t33.5 22.5t40 8.5t40 -8.5t33.5 -22.5t22.5 -33t8 -40zM937 95q0 -22 -8 -40.5t-22.5 -32.5t-33.5 -21t-40 -7t-40 7t-33.5 21t-22.5 32.5t-8 40.5q0 21 8 40
t22.5 33t33.5 22.5t40 8.5t40 -8.5t33.5 -22.5t22.5 -33t8 -40zM271 95q0 -22 -8 -40.5t-22.5 -32.5t-33.5 -21t-40 -7t-40 7t-33.5 21t-22.5 32.5t-8 40.5q0 21 8 40t22.5 33t33.5 22.5t40 8.5t40 -8.5t33.5 -22.5t22.5 -33t8 -40z" />
    <glyph glyph-name="perthousand" unicode="&#x2030;" horiz-adv-x="1167" 
d="M248 -26h-74l357 756h74zM975 322q37 0 68 -11.5t53.5 -33.5t35 -52t12.5 -68q0 -36 -13 -66.5t-35.5 -52t-53.5 -33t-66 -11.5q-31 0 -62.5 7.5t-56.5 27t-41 51t-16 76.5q0 30 10 59.5t31 53t54.5 38.5t79.5 15zM1013 166q0 60 -10.5 81t-30.5 21q-28 0 -34.5 -28.5
t-6.5 -74.5q0 -66 7.5 -93t33.5 -27q15 0 23.5 9t12.5 25.5t4.5 38.5t0.5 48zM620 155q0 38 -3 60t-8.5 34t-13 15.5t-15.5 3.5q-7 0 -14.5 -2t-13.5 -12t-10 -30.5t-4 -58.5q0 -41 3 -65t8.5 -36t13 -15.5t16.5 -3.5q25 0 33 25t8 85zM582 322q35 0 65.5 -10.5t53.5 -31
t36.5 -51t13.5 -71.5q0 -38 -13 -69t-36 -52.5t-53.5 -32t-65.5 -10.5q-40 0 -72.5 11t-55.5 32.5t-35.5 51.5t-12.5 66q0 33 11.5 63.5t33.5 53.5t54.5 36.5t75.5 13.5zM201 708q32 0 62.5 -10t54 -30t38 -50.5t14.5 -71.5q0 -37 -12.5 -68.5t-35 -54t-53.5 -35t-68 -12.5
q-38 0 -70 11.5t-55 33t-36 52.5t-13 70q0 34 12 64t34.5 52.5t55 35.5t72.5 13zM239 545q0 60 -9 84.5t-32 24.5q-13 0 -21 -8t-12.5 -22t-5.5 -33t-1 -40q0 -57 6.5 -89t34.5 -32q15 0 23 10.5t12 27t4.5 37t0.5 40.5z" />
    <glyph glyph-name="guilsinglleft" unicode="&#x2039;" horiz-adv-x="296" 
d="M62 313q12 16 27 37.5t30.5 44.5t30.5 46.5t27 42.5q20 -19 41 -34t47 -26q-15 -19 -30.5 -39.5t-31 -40t-29 -37.5t-24.5 -33q27 -38 55 -76.5t57 -74.5q-15 -9 -25.5 -15.5t-19.5 -13.5t-18.5 -15t-22.5 -19q-34 55 -70.5 107t-73.5 106l30 40v0z" />
    <glyph glyph-name="guilsinglright" unicode="&#x203a;" horiz-adv-x="296" 
d="M234 231q-12 -16 -27 -37.5t-30.5 -44.5t-30.5 -46t-27 -43q-20 19 -41 34t-47 26q15 19 30.5 39.5t31 40t29.5 37.5t24 33q-27 38 -55 76.5t-57 74.5q15 9 25.5 16t19.5 13.5t18.5 14.5t22.5 19q34 -55 70.5 -107t73.5 -106l-30 -40v0z" />
    <glyph glyph-name="fraction" unicode="&#x2044;" horiz-adv-x="167" 
d="M-83 -24h-79l416 747h79z" />
    <glyph glyph-name="Euro" unicode="&#x20ac;" 
d="M523 536q-4 21 -13.5 40.5t-24 34.5t-35 24t-46.5 9q-41 0 -68.5 -19.5t-44.5 -49t-24.5 -63t-8.5 -62.5q63 -1 126.5 0.5t129.5 6.5q-7 -11 -15.5 -29t-16.5 -45q-19 1 -36 1.5t-31 0.5h-29t-31 1q-26 0 -52 0.5t-52 0.5q-2 -20 -1.5 -40.5t2.5 -42.5q42 -1 91.5 0.5
t110.5 6.5q-7 -11 -15.5 -29t-16.5 -45q-27 2 -63.5 2.5t-99.5 1.5q5 -23 15 -48t27 -47q22 -28 51 -44q17 -8 35 -11.5t37 -3.5q51 0 84.5 25t53.5 62l31 -17q-6 -18 -13.5 -44t-18.5 -74q-40 -20 -91 -32.5t-102 -12.5q-16 0 -49 3t-72 18.5t-79.5 47.5t-71.5 88
q-12 22 -21 44.5t-14 47.5q-49 0 -88 -6q8 11 16.5 28t12.5 43q12 -2 24 -3t25 -1q-2 22 -3 42t1 40q-43 0 -76 -3q4 5 7 10.5t6 10.5q13 25 16 50q4 -1 11 -1q8 0 12 -1q8 -1 16.5 -1.5t16.5 -0.5q9 45 26 81.5t38 64.5t44.5 48t44.5 33q42 26 88 37t94 11q12 0 31.5 -1.5
t45 -6.5t56.5 -14.5t67 -26.5q-7 -25 -11.5 -42t-7.5 -31.5t-5.5 -29.5t-5.5 -37h-40v0z" />
    <glyph glyph-name="trademark" unicode="&#x2122;" horiz-adv-x="1000" 
d="M796 322q-5 61 -11 121t-17 117q-32 -61 -57.5 -116t-52.5 -120q-8 1 -15.5 2t-15.5 1t-15 -1t-15 -2q-26 61 -53 119.5t-56 116.5q-5 -22 -10 -54.5t-9 -66.5t-7 -65.5t-4 -51.5q-11 2 -20 3.5t-20 1.5q-14 0 -39 -5q26 97 44 195.5t26 198.5q14 -2 27.5 -3.5t27.5 -1.5
q15 0 28.5 1.5t27.5 3.5q8 -22 21.5 -52.5t29 -63.5t31 -64t27.5 -53q26 57 54 116.5t51 116.5q14 -2 27 -3.5t26 -1.5q14 0 28 1.5t28 3.5q4 -37 9.5 -90t13 -108.5t16 -107.5t18.5 -88q-19 2 -36.5 3.5t-36.5 1.5q-18 0 -36 -1.5t-35 -3.5zM281 517q0 -48 1 -94.5
t5 -100.5q-19 2 -37.5 3.5t-37.5 1.5q-17 0 -35 -1t-35 -4q5 29 6 69.5t1 77.5v47q0 32 -0.5 69t-2.5 72q-57 0 -111 -6q3 18 3 34q0 7 -1 14.5t-2 16.5q45 -4 89.5 -4.5t89.5 -0.5q43 0 88 0.5t93 4.5q-4 -12 -4 -34q0 -19 4 -31q-55 6 -112 6q0 -18 -1 -45.5t-1 -56.5v-38
z" />
    <glyph glyph-name="Omega" unicode="&#x2126;" horiz-adv-x="768" 
d="M35 0v163h16q5 -19 10.5 -31t13 -18.5t19 -8.5t29.5 -2h148v14q-78 22 -122 57q-44 36 -69.5 94t-25.5 120q0 74 39 143q40 69 115.5 106.5t175.5 37.5q102 0 175 -37q77 -38 115 -107q40 -67 40 -143q0 -59 -26 -120q-25 -59 -69 -93.5t-121 -57.5v-14h148q18 0 29.5 2
t19 8.5t12.5 18.5t10 31h17v-163h-296l16 142q59 22 90 64q51 71 51 183q0 126 -56 189t-152 63q-100 0 -150 -56q-63 -70 -63 -195q0 -72 19.5 -126t55.5 -85q22 -22 66 -37l15 -142h-295z" />
    <glyph glyph-name="partialdiff" unicode="&#x2202;" horiz-adv-x="494" 
d="M454 350q2 28 3.5 50.5t1.5 40.5q0 88 -46 136t-122 48q-52 0 -86.5 -19.5t-60.5 -58.5h-23q38 78 81.5 112.5t104.5 34.5q33 -1 65.5 -14t58 -41.5t41 -75t14.5 -114.5q0 -173 -75 -310q-85 -151 -214 -151q-76 0 -121 42.5t-45 117.5q0 44 13.5 85.5t35 76.5t50 62
t58.5 42q56 29 113 29q40 0 72.5 -15t53.5 -37q14 -14 27 -41zM445 307q-19 54 -56.5 82t-83.5 28q-44 0 -87 -31q-42 -30 -73 -106q-31 -74 -31 -152q0 -55 26.5 -85t68.5 -30q60 0 123 63q79 80 113 231z" />
    <glyph glyph-name="Delta" unicode="&#x2206;" horiz-adv-x="612" 
d="M13 0l306 677l280 -677h-586zM289 512l-215 -472h409z" />
    <glyph glyph-name="product" unicode="&#x220f;" horiz-adv-x="823" 
d="M217 655v-773q0 -42 18 -59t61 -17h18v-18h-292v18h18q43 0 61 17t18 59v718q0 40 -18 57.5t-61 17.5h-18v18h779v-18h-17q-43 0 -61 -17.5t-18 -57.5v-718q0 -42 18 -59t61 -17h17v-18h-292v18h17q43 0 61 17t18 59v773h-388z" />
    <glyph glyph-name="summation" unicode="&#x2211;" horiz-adv-x="713" 
d="M21 -212v18l327 436l-327 433v18h624l13 -164h-19q-8 67 -38 96t-84 29h-361l274 -370l-307 -410h399q37 0 75 13q28 9 46.5 32.5t30.5 74.5l19 -4l-31 -202h-641z" />
    <glyph glyph-name="minus" unicode="&#x2212;" horiz-adv-x="667" 
d="M64 256v109h539v-109h-539z" />
    <glyph glyph-name="radical" unicode="&#x221a;" horiz-adv-x="549" 
d="M548 913l-152 -949l-242 496l-97 -44l-16 31l146 74l198 -402l127 794h36z" />
    <glyph glyph-name="infinity" unicode="&#x221e;" horiz-adv-x="713" 
d="M319 326q33 77 72 105q41 30 109 30q78 0 133 -57q54 -55 54 -147q0 -88 -53 -147q-52 -58 -118 -58q-48 0 -90 36q-27 23 -74 104q-32 -61 -69 -87.5t-90 -26.5q-70 0 -118 50q-49 49 -49 130t45 130t105 49q43 0 74 -22q31 -21 69 -89zM366 227q18 -39 35.5 -64
t36 -39.5t38.5 -20t42 -5.5q30 0 56 11.5t44.5 32t29.5 50t11 65.5q0 73 -43 119q-42 47 -95 47q-34 0 -59 -17t-45 -55q-14 -25 -51 -124zM305 288q-24 54 -55 79.5t-76 25.5q-25 0 -47.5 -9.5t-38.5 -27t-25.5 -42.5t-9.5 -55q0 -67 34 -104q35 -39 78 -39q46 0 82 42
q23 27 58 130z" />
    <glyph glyph-name="integral" unicode="&#x222b;" horiz-adv-x="274" 
d="M106 721q2 38 8.5 69t16.5 55q13 33 36 49t45 16q25 0 43 -16.5t18 -36.5q0 -23 -12.5 -36.5t-31.5 -13.5q-18 0 -38 17q-10 10 -19 10q-8 0 -14 -7t-6 -24q0 -10 1.5 -27.5t3.5 -43.5q18 -201 18 -324q0 -17 -2 -88t-6 -200q-5 -141 -44 -191q-25 -33 -65 -33
q-26 0 -42 16.5t-16 42.5q0 22 12.5 33.5t31.5 11.5t33 -12q15 -16 25 -16q19 0 19 28q0 9 -1.5 23.5t-3.5 33.5q-7 71 -12 165q-6 122 -6 215l8 284v0z" />
    <glyph glyph-name="approxequal" unicode="&#x2248;" horiz-adv-x="549" 
d="M535 507q-2 -63 -36 -98t-82 -35q-27 0 -49 7q-13 4 -46.5 17t-87.5 35q-74 31 -108 31t-57.5 -21.5t-32.5 -67.5h-21q0 32 9.5 56t25.5 41t36.5 26t41.5 10q23 0 43 -7q26 -7 61 -20t81 -33q25 -11 44 -18t33 -11q14 -3 32 -3q37 0 62 23t30 68h21zM535 267
q-2 -63 -36 -98.5t-82 -35.5q-23 0 -74 15l-109 45q-74 31 -108 31t-57.5 -21t-32.5 -69h-21q0 33 9.5 57.5t25 41t35.5 25.5t42 10q22 0 44 -6q48 -14 142 -54q24 -11 43.5 -17.5t33.5 -10.5q11 -4 32 -4q37 0 62 23t30 68h21z" />
    <glyph glyph-name="notequal" unicode="&#x2260;" horiz-adv-x="549" 
d="M306 399l103 261h39l-101 -261h190v-45h-208l-70 -181h278v-46h-296l-103 -256h-39l102 256h-189v46h207l71 181h-278v45h294z" />
    <glyph glyph-name="lessequal" unicode="&#x2264;" horiz-adv-x="549" 
d="M12 343v40l524 222v-50l-464 -192l464 -193v-50zM537 -32v-45h-525v45h525z" />
    <glyph glyph-name="greaterequal" unicode="&#x2265;" horiz-adv-x="549" 
d="M536 382v-40l-524 -222v50l464 192l-464 193v50zM537 -32v-45h-525v45h525z" />
    <glyph glyph-name="lozenge" unicode="&#x25ca;" horiz-adv-x="494" 
d="M472 346l-204 -346h-54l-191 346l191 348h54zM76 346l166 -300l175 300l-175 301z" />
    <glyph glyph-name="apple" unicode="&#xf8ff;" horiz-adv-x="790" 
d="M408 588q20 0 71 17t87 17q60 0 107 -32q13 -10 26 -22t26 -28q-39 -34 -57 -60q-33 -46 -33 -103q0 -62 35 -112q34 -49 79 -63q-10 -30 -25 -61.5t-36 -63.5q-64 -95 -129 -95q-27 0 -71 16q-43 13 -75 13q-33 0 -72 -14q-42 -17 -66 -17q-76 0 -150 127
q-74 128 -74 252q0 114 56 187q57 72 143 72q37 0 89 -15q53 -15 69 -15zM561 790q0 -32 -15 -69t-46 -69q-29 -27 -55 -36q-19 -5 -51 -8q1 74 38.5 128.5t125.5 74.5q2 -7 2.5 -12t0.5 -9z" />
    </font>
</defs>
</svg>
